Вы используете незарегистрированную версию компонента "Вкладки"!

Поиск

(free jazz) [CD] Steve Reid - Odyssey of The Oblong Square 1977, FLAC (tracks+.cue), lossless

Треклист:


Steve Reid - Odyssey of The Oblong Square 1977

Жанр: free jazz
Год выпуска: 1977
Издатель (лейбл):2009, Universal Sound / USCD32
Формат: FLAC (tracks+.cue)
Битрейт аудио: lossless
Продолжительность 41`40
Источник: what.cd, vdown

tracks
1. Odyssey Theme
2. Deacon's Son
3. Odyssey Sweet
4. Ginsamseng


 
.log
X Lossless Decoder version 20101023 (123.5)
XLD extraction logfile from 2010-10-25 21:52:01 +0100
Steve Reid / Odyssey Of The Oblong Square
Used drive : HL-DT-ST DVDRW GSA-S10N (revision BP10)
Use cdparanoia mode : YES (CDParanoia III 10.2 engine)
Disable audio cache : OK for the drive with cache less than 2750KB
Make use of C2 pointers : NO
Read offset correction : 667
Max retry count : 100
Gap status : Analyzed, Appended
TOC of the extracted CD
Track | Start | Length | Start sector | End sector
---------------------------------------------------------
1 | 00:00:00 | 00:57:17 | 0 | 4291
2 | 00:57:17 | 19:19:61 | 4292 | 91277
3 | 20:17:03 | 05:05:73 | 91278 | 114225
4 | 25:23:01 | 16:16:65 | 114226 | 187490
All Tracks
Album gain : -3.56 dB
Peak : 0.966248
Track 01
Filename : /Users/Desktop/Music/01 - Odyssey Theme.flac
Pre-gap length : 00:02:00
Track gain : -3.71 dB
Peak : 0.966217
CRC32 hash (test run) : F0E293D3
CRC32 hash : F0E293D3
CRC32 hash (skip zero) : 04646A0D
AccurateRip signature : 82ED1574
->Accurately ripped! (confidence 1)
Statistics
Read error : 0
Skipped (treated as error) : 0
Edge jitter error (maybe fixed) : 0
Atom jitter error (maybe fixed) : 1
Drift error (maybe fixed) : 0
Dropped bytes error (maybe fixed) : 0
Duplicated bytes error (maybe fixed) : 0
Inconsistency in error sectors : 0
Track 02
Filename : /Users/Desktop/Music/02 - Deacon's Son.flac
Pre-gap length : 00:02:71
Track gain : -3.18 dB
Peak : 0.966248
CRC32 hash (test run) : 0FD7EC45
CRC32 hash : 0FD7EC45
CRC32 hash (skip zero) : 1BA510C8
AccurateRip signature : 18FD38A1
->Accurately ripped! (confidence 1)
Statistics
Read error : 0
Skipped (treated as error) : 0
Edge jitter error (maybe fixed) : 2
Atom jitter error (maybe fixed) : 0
Drift error (maybe fixed) : 0
Dropped bytes error (maybe fixed) : 0
Duplicated bytes error (maybe fixed) : 2
Inconsistency in error sectors : 0
Track 03
Filename : /Users/Desktop/Music/03 - Odyssey Sweet.flac
Pre-gap length : 00:03:25
Track gain : -1.84 dB
Peak : 0.966156
CRC32 hash (test run) : D3AFB00A
CRC32 hash : D3AFB00A
CRC32 hash (skip zero) : E6BA543B
AccurateRip signature : 72459564
->Accurately ripped! (confidence 1)
Statistics
Read error : 0
Skipped (treated as error) : 0
Edge jitter error (maybe fixed) : 2
Atom jitter error (maybe fixed) : 1
Drift error (maybe fixed) : 0
Dropped bytes error (maybe fixed) : 0
Duplicated bytes error (maybe fixed) : 1
Inconsistency in error sectors : 0
Track 04
Filename : /Users/Desktop/Music/04 - Ginsamseng.flac
Pre-gap length : 00:02:22
Track gain : -4.29 dB
Peak : 0.966248
CRC32 hash (test run) : 5EE3AAEC
CRC32 hash : 5EE3AAEC
CRC32 hash (skip zero) : 6A459BF6
AccurateRip signature : E26ACB2E
->Accurately ripped! (confidence 1)
Statistics
Read error : 0
Skipped (treated as error) : 0
Edge jitter error (maybe fixed) : 1
Atom jitter error (maybe fixed) : 0
Drift error (maybe fixed) : 0
Dropped bytes error (maybe fixed) : 0
Duplicated bytes error (maybe fixed) : 1
Inconsistency in error sectors : 0
No errors occurred
End of status report
 
.cue
TITLE "Odyssey Of The Oblong Square"
PERFORMER "Steve Reid"
REM DATE 1977
REM DISCID 2A09C304
FILE "01 - Steve Reid - Odyssey Theme.wav" WAVE
TRACK 01 AUDIO
TITLE "Odyssey Theme"
INDEX 01 00:00:00
TRACK 02 AUDIO
TITLE "Deacon's Son"
INDEX 00 00:54:21
FILE "02 - Steve Reid - Deacon's Son.wav" WAVE
INDEX 01 00:00:00
TRACK 03 AUDIO
TITLE "Odyssey Sweet"
INDEX 00 19:16:36
FILE "03 - Steve Reid - Odyssey Sweet.wav" WAVE
INDEX 01 00:00:00
TRACK 04 AUDIO
TITLE "Ginsamseng"
INDEX 00 05:03:51
FILE "04 - Steve Reid - Ginsamseng.wav" WAVE
INDEX 01 00:00:00
 
.accurip
[CUETools log; Date: 16/01/14 12:58:41; Version: 2.1.4]
[CTDB TOCID: ezCTZRu0BC_pW2ngy22rX70YbvI-] found.
Track | CTDB Status
1 | (2/2) Accurately ripped
2 | (2/2) Accurately ripped
3 | (2/2) Accurately ripped
4 | (2/2) Accurately ripped
[AccurateRip ID: 00060fe7-001995ea-2a09c304] found.
Track [ CRC | V2 ] Status
01 [82ed1574|cd075e10] (0+2/2) Accurately ripped
02 [18fd38a1|37b8348a] (0+2/2) Accurately ripped
03 [72459564|da954aa1] (0+2/2) Accurately ripped
04 [e26acb2e|0b22da76] (0+2/2) Accurately ripped
Track Peak [ CRC32 ] [W/O NULL]
-- 96.6 [A483E71A] [60B567BD]
01 96.6 [F0E293D3] [04646A0D]
02 96.6 [0FD7EC45] [1BA510C8]
03 96.6 [D3AFB00A] [E6BA543B]
04 96.6 [5EE3AAEC] [6A459BF6]

другие релизы
По всем вопросам пишите личное сообщение пользователю M0p94ok.
22:25
148
Нет комментариев. Ваш будет первым!