Вы используете незарегистрированную версию компонента "Вкладки"!

Поиск

(Avant-Garde Jazz, Free Improvisation) [CD] Albert Beger's 5 - Listening - 2004, FLAC (tracks+.cue), lossless

(Avant-Garde Jazz, Free Improvisation) [CD] Albert Beger's 5 - Listening - 2004, FLAC (tracks+.cue), lossless
Треклист:
♦ Albert Beger's 5 - Listening ♦
Жанр: Avant-Garde Jazz, Free Improvisation
Носитель: CD
Страна-производитель диска: Israel
Год издания: 2004
Издатель (лейбл): Earsay's Jazz
Номер по каталогу: ES033
Аудиокодек: FLAC (*.flac)
Тип рипа: tracks+.cue
Битрейт аудио: lossless
Продолжительность: 00:45:43
Источник (релизер): musicgate
Наличие сканов в содержимом раздачи: да
Треклист:
01. What A Day [06:52]
02. I Was Here Before [06:37]
03. Albert [05:22]
04. Listening [07:39]
05. Karma [04:44]
06. Sasha [04:15]
07. Yogi Baba [10:11]
 
Лог создания рипа
Exact Audio Copy V0.99 prebeta 4 from 23. January 2008
EAC extraction logfile from 29. March 2009, 19:17
Albert Beger / Albert Beger's 5
Used drive : PIONEER DVD-RW DVR-112D Adapter: 0 ID: 0
Read mode : Secure
Utilize accurate stream : Yes
Defeat audio cache : Yes
Make use of C2 pointers : No
Read offset correction : 48
Overread into Lead-In and Lead-Out : No
Fill up missing offset samples with silence : Yes
Delete leading and trailing silent blocks : No
Null samples used in CRC calculations : Yes
Used interface : Installed external ASPI interface
Gap handling : Appended to previous track
Used output format : User Defined Encoder
Selected bitrate : 320 kBit/s
Quality : High
Add ID3 tag : Yes
Command line compressor : C:\Program Files\Exact Audio Copy\Flac\flac.exe
Additional command line options : -V -8 -T "artist=%a" -T "title=%t" -T "album=%g" -T "date=%y" -T "tracknumber=%n" -T "genre=%m" %s
TOC of the extracted CD
Track | Start | Length | Start sector | End sector
---------------------------------------------------------
1 | 0:00.00 | 6:52.68 | 0 | 30967
2 | 6:52.68 | 6:37.12 | 30968 | 60754
3 | 13:30.05 | 5:22.38 | 60755 | 84942
4 | 18:52.43 | 7:39.51 | 84943 | 119418
5 | 26:32.19 | 4:44.34 | 119419 | 140752
6 | 31:16.53 | 4:15.25 | 140753 | 159902
7 | 35:32.03 | 10:11.59 | 159903 | 205786
Track 1
Filename D:\music\rip\Albert Beger - Albert Beger's 5 (2004) {Earsay's Jazz}\01 - What A Day.wav
Pre-gap length 0:00:02.00
Peak level 100.0 %
Track quality 100.0 %
Test CRC 88848C29
Copy CRC 88848C29
Accurately ripped (confidence 1) [1FAB8D1A]
Copy OK
Track 2
Filename D:\music\rip\Albert Beger - Albert Beger's 5 (2004) {Earsay's Jazz}\02 - I Was Here Before.wav
Pre-gap length 0:00:03.00
Peak level 100.0 %
Track quality 99.9 %
Test CRC CA6017A6
Copy CRC CA6017A6
Accurately ripped (confidence 1) [7C699BE0]
Copy OK
Track 3
Filename D:\music\rip\Albert Beger - Albert Beger's 5 (2004) {Earsay's Jazz}\03 - Albert.wav
Pre-gap length 0:00:04.00
Peak level 100.0 %
Track quality 100.0 %
Test CRC 2CEE351E
Copy CRC 2CEE351E
Accurately ripped (confidence 1) [5CB40BDA]
Copy OK
Track 4
Filename D:\music\rip\Albert Beger - Albert Beger's 5 (2004) {Earsay's Jazz}\04 - Listening.wav
Pre-gap length 0:00:04.00
Peak level 100.0 %
Track quality 100.0 %
Test CRC D24777A1
Copy CRC D24777A1
Accurately ripped (confidence 1) [F207A2B3]
Copy OK
Track 5
Filename D:\music\rip\Albert Beger - Albert Beger's 5 (2004) {Earsay's Jazz}\05 - Karma.wav
Pre-gap length 0:00:04.00
Peak level 100.0 %
Track quality 100.0 %
Test CRC 7BC7306A
Copy CRC 7BC7306A
Accurately ripped (confidence 1) [5909EB33]
Copy OK
Track 6
Filename D:\music\rip\Albert Beger - Albert Beger's 5 (2004) {Earsay's Jazz}\06 - Sasha.wav
Pre-gap length 0:00:03.00
Peak level 100.0 %
Track quality 99.9 %
Test CRC 2F020FBE
Copy CRC 2F020FBE
Accurately ripped (confidence 1) [96159012]
Copy OK
Track 7
Filename D:\music\rip\Albert Beger - Albert Beger's 5 (2004) {Earsay's Jazz}\07 - Yogi Baba.wav
Pre-gap length 0:00:03.00
Peak level 100.0 %
Track quality 100.0 %
Test CRC 37187E86
Copy CRC 37187E86
Accurately ripped (confidence 1) [0C1914B1]
Copy OK
All tracks accurately ripped
No errors occurred
End of status report
 
Содержание индексной карты (.CUE)
REM GENRE "Cool/West Coast Jazz"
REM DATE 2004
REM DISCID 540AB707
REM COMMENT "ExactAudioCopy v0.99pb4"
PERFORMER "Albert Beger"
TITLE "Albert Beger's 5"
FILE "01 - What A Day.wav" WAVE
TRACK 01 AUDIO
TITLE "What A Day"
PERFORMER "Albert Beger"
INDEX 01 00:00:00
TRACK 02 AUDIO
TITLE "I Was Here Before"
PERFORMER "Albert Beger"
INDEX 00 06:49:68
FILE "02 - I Was Here Before.wav" WAVE
INDEX 01 00:00:00
TRACK 03 AUDIO
TITLE "Albert"
PERFORMER "Albert Beger"
INDEX 00 06:33:12
FILE "03 - Albert.wav" WAVE
INDEX 01 00:00:00
TRACK 04 AUDIO
TITLE "Listening"
PERFORMER "Albert Beger"
INDEX 00 05:18:38
FILE "04 - Listening.wav" WAVE
INDEX 01 00:00:00
TRACK 05 AUDIO
TITLE "Karma"
PERFORMER "Albert Beger"
INDEX 00 07:35:51
FILE "05 - Karma.wav" WAVE
INDEX 01 00:00:00
TRACK 06 AUDIO
TITLE "Sasha"
PERFORMER "Albert Beger"
INDEX 00 04:41:34
FILE "06 - Sasha.wav" WAVE
INDEX 01 00:00:00
TRACK 07 AUDIO
TITLE "Yogi Baba"
PERFORMER "Albert Beger"
INDEX 00 04:12:25
FILE "07 - Yogi Baba.wav" WAVE
INDEX 01 00:00:00
 
Состав
Alto Saxophone – Albert Beger (tracks: 2, 7), Yoni Silver (tracks: 1, 5)
Tenor Saxophone – Albert Beger (tracks: 1, 3 to 6)
Bass – Gabriel Meyer
Bass Clarinet – Yoni Silver (tracks: 2, 3, 6, 7)
Drums – Hagai Fershtman
uitar – Yiftach Kadan
Producer – Yossi Acchoti
Organ – Yoni Silver (4)
Any questions -> support@pro-jazz.com. По всем вопросам пишите -> support@pro-jazz.com
22:24
165
Нет комментариев. Ваш будет первым!