Вы используете незарегистрированную версию компонента "Вкладки"!

Поиск

(free jazz) [CD] Steve Reid - Rhythmatism 1975, FLAC (tracks+.cue), lossless

(free jazz) [CD] Steve Reid - Rhythmatism 1975, FLAC (tracks+.cue), lossless
Треклист:


Steve Reid - Rhythmatism 1975

Жанр: free jazz
Год выпуска: 1975
Издатель (лейбл):2004, Universal Sound / US CD 23
Формат: FLAC (tracks+.cue)
Битрейт аудио: lossless
Продолжительность 37`33
Источник: what.cd, MrMonkey
Bass – David Wertman
Drums – Steve Reid (2)
Piano – Les Walker
Saxophone [Alto] – Arthur Blythe
Trombone – Michael Keith (4)

tracks

1 Kai 12:45
2 Rocks (For Cannonball) 11:04
3 Center Of The Earth 4:20
4 C You Around 12:30
5 One Minute Please 1:00


 
.log
Exact Audio Copy V1.0 beta 3 from 29. August 2011
EAC extraction logfile from 26. August 2013, 19:06
Steve Reid / Rhythmatism
Used drive : hp CDDVDW TS-H653TN Adapter: 0 ID: 0
Read mode : Secure
Utilize accurate stream : Yes
Defeat audio cache : Yes
Make use of C2 pointers : No
Read offset correction : 6
Overread into Lead-In and Lead-Out : No
Fill up missing offset samples with silence : Yes
Delete leading and trailing silent blocks : No
Null samples used in CRC calculations : Yes
Used interface : Native Win32 interface for Win NT & 2000
Gap handling : Appended to previous track
Used output format : User Defined Encoder
Selected bitrate : 128 kBit/s
Quality : High
Add ID3 tag : No
Command line compressor : C:\Program Files (x86)\Exact Audio Copy\Flac\flac.exe
Additional command line options : -8 -V -T "ARTIST=%artist%" -T "TITLE=%title%" -T "ALBUM=%albumtitle%" -T "DATE=%year%" -T "TRACKNUMBER=%tracknr%" -T "GENRE=%genre%" -T "PERFORMER=%albuminterpret%" -T "COMPOSER=%composer%" %haslyrics%--tag-from-file=LYRICS="%lyricsfile%"%haslyrics% -T "ALBUMARTIST=%albumartist%" -T "DISCNUMBER=%cdnumber%" -T "TOTALDISCS=%totalcds%" -T "TOTALTRACKS=%numtracks%" -T "COMMENT=%comment%" %source% -o %dest%
TOC of the extracted CD
Track | Start | Length | Start sector | End sector
---------------------------------------------------------
1 | 0:00.00 | 11:31.54 | 0 | 51878
2 | 11:31.54 | 9:31.29 | 51879 | 94732
3 | 21:03.08 | 4:01.26 | 94733 | 112833
4 | 25:04.34 | 11:27.45 | 112834 | 164403
5 | 36:32.04 | 1:00.52 | 164404 | 168955
Track 1
Filename D:\Rips\Steve Reid - Rhythmatism\01 - Kai.wav
Pre-gap length 0:00:02.00
Peak level 94.4 %
Extraction speed 2.1 X
Track quality 100.0 %
Test CRC FDAD2BD9
Copy CRC FDAD2BD9
Accurately ripped (confidence 3) [2EC91931] (AR v2)
Copy OK
Track 2
Filename D:\Rips\Steve Reid - Rhythmatism\02 - Rocks (For Cannonball).wav
Pre-gap length 0:00:03.29
Peak level 97.0 %
Extraction speed 2.4 X
Track quality 99.9 %
Test CRC F7E63031
Copy CRC F7E63031
Accurately ripped (confidence 3) [1A5A3ED2] (AR v2)
Copy OK
Track 3
Filename D:\Rips\Steve Reid - Rhythmatism\03 - Center Of The Earth.wav
Pre-gap length 0:00:04.65
Peak level 93.9 %
Extraction speed 2.2 X
Track quality 99.9 %
Test CRC F6A5AE23
Copy CRC F6A5AE23
Accurately ripped (confidence 3) [CEBDA056] (AR v2)
Copy OK
Track 4
Filename D:\Rips\Steve Reid - Rhythmatism\04 - C You Around.wav
Pre-gap length 0:00:04.80
Peak level 97.5 %
Extraction speed 3.1 X
Track quality 100.0 %
Test CRC 80C9FEC6
Copy CRC 80C9FEC6
Accurately ripped (confidence 3) [36CB20DA] (AR v2)
Copy OK
Track 5
Filename D:\Rips\Steve Reid - Rhythmatism\05 - One Minute Please.wav
Pre-gap length 0:00:03.58
Peak level 91.3 %
Extraction speed 2.0 X
Track quality 100.0 %
Test CRC C94196B2
Copy CRC C94196B2
Accurately ripped (confidence 3) [AA6BC2A8] (AR v2)
Copy OK
All tracks accurately ripped
No errors occurred
End of status report
==== Log checksum DBD7FCB673AE680CC387ADB56D718150767B1FE8A1E4886E0877B205A2FE8DB4 ====
 
.cue
REM GENRE Jazz
REM DATE 1975
REM DISCID 3E08CC05
REM COMMENT "ExactAudioCopy v1.0b3"
PERFORMER "Steve Reid"
TITLE "Rhythmatism"
FILE "01 - Kai.wav" WAVE
TRACK 01 AUDIO
TITLE "Kai"
PERFORMER "Steve Reid"
INDEX 01 00:00:00
TRACK 02 AUDIO
TITLE "Rocks (For Cannonball)"
PERFORMER "Steve Reid"
INDEX 00 11:28:32
FILE "02 - Rocks (For Cannonball).wav" WAVE
INDEX 01 00:00:00
TRACK 03 AUDIO
TITLE "Center Of The Earth"
PERFORMER "Steve Reid"
INDEX 00 09:26:55
FILE "03 - Center Of The Earth.wav" WAVE
INDEX 01 00:00:00
TRACK 04 AUDIO
TITLE "C You Around"
PERFORMER "Steve Reid"
INDEX 00 03:56:41
FILE "04 - C You Around.wav" WAVE
INDEX 01 00:00:00
TRACK 05 AUDIO
TITLE "One Minute Please"
PERFORMER "Steve Reid"
INDEX 00 11:24:01
FILE "05 - One Minute Please.wav" WAVE
INDEX 01 00:00:00

другие релизы
По всем вопросам пишите личное сообщение пользователю M0p94ok.
22:08
258
Нет комментариев. Ваш будет первым!