Вы используете незарегистрированную версию компонента "Вкладки"!

Поиск

(Free Jazz) [CD] Sonny Simmons Trio - Live - In Paris (2 cd) - 2002, FLAC (image+.cue), lossless

(Free Jazz) [CD] Sonny Simmons Trio - Live - In Paris (2 cd) - 2002, FLAC (image+.cue), lossless
Треклист:
Sonny Simmons Trio / Live - In Paris
Жанр: Free Jazz
Носитель: CD
Страна-производитель диска: US
Год издания: 2002
Издатель (лейбл): Arhoolie Records
Номер по каталогу: CD 506
Аудиокодек: FLAC (*.flac)
Тип рипа: image+.cue
Битрейт аудио: lossless
Продолжительность: 55:02 + 49:17
Источник (релизер): CD
Наличие сканов в содержимом раздачи: нет
Треклист:
Disc One
1. Cosmic Ship 14:00
2. Purple Kiss 7:00
3. My Favorite Things 5:35
4. Ancient Egypt 4:00
5. New Bird Blues 5:40
6. Reverend Church 8:50
7. Hot House 9:45
Disc Two
1. Lady L 7:25
2. Salt Peanuts 5:00
3. Ghost From The Golden Era 19:20
4. Voodoo Hoodoo Funk 5:00
5. 'Round Midnight 5:40
6. Hip Hop Le Funk 6:45
 
Лог создания рипа
Exact Audio Copy V1.0 beta 2 from 29. April 2011
EAC extraction logfile from 8. January 2014, 13:13
Sonny Simmons Trio / Live In Paris
Used drive : Optiarc DVD RW AD-7170A Adapter: 0 ID: 0
Read mode : Secure
Utilize accurate stream : Yes
Defeat audio cache : Yes
Make use of C2 pointers : No
Read offset correction : 48
Overread into Lead-In and Lead-Out : No
Fill up missing offset samples with silence : Yes
Delete leading and trailing silent blocks : No
Null samples used in CRC calculations : Yes
Used interface : Native Win32 interface for Win NT & 2000
Used output format : User Defined Encoder
Selected bitrate : 320 kBit/s
Quality : High
Add ID3 tag : No
Command line compressor : C:\Program Files\Exact Audio Copy\Flac\flac.exe
Additional command line options : -V -8 -T "Date=%year%" -T "Genre=%genre%" %source%
TOC of the extracted CD
Track | Start | Length | Start sector | End sector
---------------------------------------------------------
1 | 0:00.00 | 14:05.74 | 0 | 63448
2 | 14:05.74 | 7:00.44 | 63449 | 94992
3 | 21:06.43 | 5:36.14 | 94993 | 120206
4 | 26:42.57 | 3:59.12 | 120207 | 138143
5 | 30:41.69 | 5:39.28 | 138144 | 163596
6 | 36:21.22 | 8:54.34 | 163597 | 203680
7 | 45:15.56 | 9:47.17 | 203681 | 247722
Range status and errors
Selected range
Filename K:\ЕАС\Sonny Simmons Trio - Live In Paris.wav
Peak level 100.0 %
Extraction speed 2.0 X
Range quality 100.0 %
Test CRC A577CE74
Copy CRC A577CE74
Copy OK
No errors occurred
AccurateRip summary
Track 1 accurately ripped (confidence 1) [B0195ECE] (AR v2)
Track 2 accurately ripped (confidence 1) [30F98287] (AR v2)
Track 3 accurately ripped (confidence 1) [08D77DB4] (AR v2)
Track 4 accurately ripped (confidence 1) [265BD105] (AR v2)
Track 5 accurately ripped (confidence 1) [4F3F7CBD] (AR v2)
Track 6 accurately ripped (confidence 1) [74FD6424] (AR v2)
Track 7 accurately ripped (confidence 1) [BBBFAC96] (AR v2)
All tracks accurately ripped
End of status report
==== Log checksum E374EFB968F8204CBAB4C719C4D7EF793B1203D06DA52E79DAA60C7685FD5D6C ====
__________________________________________________________________________________________________________________
Exact Audio Copy V1.0 beta 2 from 29. April 2011
EAC extraction logfile from 8. January 2014, 10:03
Sonny Simmons Trio / Live In Paris
Used drive : Optiarc DVD RW AD-7170A Adapter: 0 ID: 0
Read mode : Secure
Utilize accurate stream : Yes
Defeat audio cache : Yes
Make use of C2 pointers : No
Read offset correction : 48
Overread into Lead-In and Lead-Out : No
Fill up missing offset samples with silence : Yes
Delete leading and trailing silent blocks : No
Null samples used in CRC calculations : Yes
Used interface : Native Win32 interface for Win NT & 2000
Used output format : User Defined Encoder
Selected bitrate : 320 kBit/s
Quality : High
Add ID3 tag : No
Command line compressor : C:\Program Files\Exact Audio Copy\Flac\flac.exe
Additional command line options : -V -8 -T "Date=%year%" -T "Genre=%genre%" %source%
TOC of the extracted CD
Track | Start | Length | Start sector | End sector
---------------------------------------------------------
1 | 0:00.00 | 14:05.74 | 0 | 63448
2 | 14:05.74 | 7:00.44 | 63449 | 94992
3 | 21:06.43 | 5:36.14 | 94993 | 120206
4 | 26:42.57 | 3:59.12 | 120207 | 138143
5 | 30:41.69 | 5:39.28 | 138144 | 163596
6 | 36:21.22 | 8:54.34 | 163597 | 203680
7 | 45:15.56 | 9:47.17 | 203681 | 247722
Range status and errors
Selected range
Filename K:\ЕАС\Sonny Simmons Trio - Live In Paris.wav
Peak level 100.0 %
Extraction speed 1.9 X
Range quality 99.9 %
Test CRC A577CE74
Copy CRC A577CE74
Copy OK
No errors occurred
AccurateRip summary
Track 1 accurately ripped (confidence 1) [B0195ECE] (AR v2)
Track 2 accurately ripped (confidence 1) [30F98287] (AR v2)
Track 3 accurately ripped (confidence 1) [08D77DB4] (AR v2)
Track 4 accurately ripped (confidence 1) [265BD105] (AR v2)
Track 5 accurately ripped (confidence 1) [4F3F7CBD] (AR v2)
Track 6 accurately ripped (confidence 1) [74FD6424] (AR v2)
Track 7 accurately ripped (confidence 1) [BBBFAC96] (AR v2)
All tracks accurately ripped
End of status report
==== Log checksum 6EB4EB72EFFBD758615086EA747A0CFA4572FF7635AEF1E1AEAB11553ADB6703 ====
------------------------------------------------------------
Exact Audio Copy V1.0 beta 2 from 29. April 2011
EAC extraction logfile from 8. January 2014, 11:02
Sonny Simmons Trio / Live In Paris
Used drive : Optiarc DVD RW AD-7170A Adapter: 0 ID: 0
Read mode : Secure
Utilize accurate stream : Yes
Defeat audio cache : Yes
Make use of C2 pointers : No
Read offset correction : 48
Overread into Lead-In and Lead-Out : No
Fill up missing offset samples with silence : Yes
Delete leading and trailing silent blocks : No
Null samples used in CRC calculations : Yes
Used interface : Native Win32 interface for Win NT & 2000
Used output format : User Defined Encoder
Selected bitrate : 320 kBit/s
Quality : High
Add ID3 tag : No
Command line compressor : C:\Program Files\Exact Audio Copy\Flac\flac.exe
Additional command line options : -V -8 -T "Date=%year%" -T "Genre=%genre%" %source%
TOC of the extracted CD
Track | Start | Length | Start sector | End sector
---------------------------------------------------------
1 | 0:00.00 | 7:24.36 | 0 | 33335
2 | 7:24.36 | 4:58.66 | 33336 | 55751
3 | 12:23.27 | 19:22.41 | 55752 | 142942
4 | 31:45.68 | 5:01.51 | 142943 | 165568
5 | 36:47.44 | 5:42.27 | 165569 | 191245
6 | 42:29.71 | 6:47.23 | 191246 | 221793
Range status and errors
Selected range
Filename K:\ЕАС\Sonny Simmons Trio - Live In Paris\Sonny Simmons Trio - Live In Paris.wav
Peak level 99.9 %
Extraction speed 1.9 X
Range quality 100.0 %
Test CRC 82026D9A
Copy CRC 82026D9A
Copy OK
No errors occurred
AccurateRip summary
Track 1 not present in database
Track 2 not present in database
Track 3 not present in database
Track 4 not present in database
Track 5 not present in database
Track 6 not present in database
None of the tracks are present in the AccurateRip database
End of status report
==== Log checksum EB29AEAB65D1C74C25AB972F0C8E947EDAE683B8E8D9C5F1B87C84E490513612 ====
 
Содержание индексной карты (.CUE)
REM GENRE Jazz
REM DATE 2002
REM DISCID 600CE607
REM COMMENT "ExactAudioCopy v1.0b2"
PERFORMER "Sonny Simmons Trio"
TITLE "Live In Paris"
FILE "Sonny Simmons Trio - Live In Paris.flac" WAVE
TRACK 01 AUDIO
TITLE "Cosmic Ship"
PERFORMER "Sonny Simmons Trio"
ISRC 000000000000
INDEX 01 00:00:00
TRACK 02 AUDIO
TITLE "Purple Kiss"
PERFORMER "Sonny Simmons Trio"
ISRC 000000000000
INDEX 01 14:05:74
TRACK 03 AUDIO
TITLE "My Favorite Things"
PERFORMER "Sonny Simmons Trio"
ISRC 000000000000
INDEX 01 21:06:43
TRACK 04 AUDIO
TITLE "Ancient Egypt"
PERFORMER "Sonny Simmons Trio"
ISRC 000000000000
INDEX 01 26:42:57
TRACK 05 AUDIO
TITLE "New Bird Blues"
PERFORMER "Sonny Simmons Trio"
ISRC 000000000000
INDEX 01 30:41:69
TRACK 06 AUDIO
TITLE "Reverend Church"
PERFORMER "Sonny Simmons Trio"
ISRC 000000000000
INDEX 01 36:21:22
TRACK 07 AUDIO
TITLE "Hot House"
PERFORMER "Sonny Simmons Trio"
ISRC 000000000000
INDEX 01 45:15:56
__________________________________________________________________________________________________________________
REM GENRE Jazz
REM DATE 2002
REM DISCID 4B0B8D06
REM COMMENT "ExactAudioCopy v1.0b2"
PERFORMER "Sonny Simmons Trio"
TITLE "Live In Paris"
FILE "Sonny Simmons Trio - Live In Paris.flac" WAVE
TRACK 01 AUDIO
TITLE "Lady L"
PERFORMER "Sonny Simmons Trio"
ISRC 000000000000
INDEX 01 00:00:00
TRACK 02 AUDIO
TITLE "Salt Peanuts"
PERFORMER "Sonny Simmons Trio"
ISRC 000000000000
INDEX 01 07:24:36
TRACK 03 AUDIO
TITLE "Ghost From The Golden Era"
PERFORMER "Sonny Simmons Trio"
ISRC 000000000000
INDEX 01 12:23:27
TRACK 04 AUDIO
TITLE "Voodoo Hoodoo Funk"
PERFORMER "Sonny Simmons Trio"
ISRC 000000000000
INDEX 01 31:45:68
TRACK 05 AUDIO
TITLE "Round Midnight "
PERFORMER "Sonny Simmons Trio"
ISRC 000000000000
INDEX 01 36:47:44
TRACK 06 AUDIO
TITLE "Hip Hop Le Funk"
PERFORMER "Sonny Simmons Trio"
ISRC 000000000000
INDEX 01 42:29:71
Доп. информация: Recorded live at the Club La Ville, Paris
 
Состав
Alto Saxophone, English Horn – Sonny Simmons
Bass – Jean-Jacques Avenel
Drums – George Brown
Any questions -> support@pro-jazz.com. По всем вопросам пишите -> support@pro-jazz.com
22:09
221
Нет комментариев. Ваш будет первым!