Поиск

(Avant-Garde Jazz, Free Improvisation) [CD] Archie Shepp - Day Dream {1977} - 1989, FLAC (tracks+.cue), lossless

(Avant-Garde Jazz, Free Improvisation) [CD] Archie Shepp - Day Dream {1977} - 1989, FLAC (tracks+.cue), lossless
Треклист:
♦ Archie Shepp - Day Dream {1977} ♦
Жанр: Avant-Garde Jazz, Free Improvisation
Носитель: CD
Страна-производитель диска: Japan
Год издания: 1989
Издатель (лейбл): Denon / Nippon Columbia
Номер по каталогу: DC-8547
Аудиокодек: FLAC (*.flac)
Тип рипа: tracks+.cue
Битрейт аудио: lossless
Продолжительность: 00:37:35
Источник (релизер): Рип с диска.
Наличие сканов в содержимом раздачи: да
Треклист:
01. Don't You Know I Care [07:10]
02. Caravan [06:07]
03. Day Dream [05:46]
04. Satin Doll [05:29]
05. I Got It Bad and That Ain't Good [07:32]
06. Prelude to a Kiss [05:28]
 
Лог создания рипа
Exact Audio Copy V1.0 beta 3 from 29. August 2011
EAC extraction logfile from 8. January 2014, 14:38
Archie Shepp / Day Dream
Used drive : Optiarc DVD RW AD-5200A Adapter: 0 ID: 0
Read mode : Secure
Utilize accurate stream : Yes
Defeat audio cache : Yes
Make use of C2 pointers : No
Read offset correction : 48
Overread into Lead-In and Lead-Out : No
Fill up missing offset samples with silence : Yes
Delete leading and trailing silent blocks : No
Null samples used in CRC calculations : Yes
Used interface : Native Win32 interface for Win NT & 2000
Gap handling : Appended to previous track
Used output format : User Defined Encoder
Selected bitrate : 128 kBit/s
Quality : High
Add ID3 tag : No
Command line compressor : C:\Program Files\Exact Audio Copy\Flac\flac.exe
Additional command line options : -V -8 -T "Genre=%genre%" -T "Artist=%artist%" -T "Title=%title%" -T "Album=%albumtitle%" -T "Date=%year%" -T "Tracknumber=%tracknr%" -T "Comment=%comment%" %source%
TOC of the extracted CD
Track | Start | Length | Start sector | End sector
---------------------------------------------------------
1 | 0:00.00 | 7:10.45 | 0 | 32294
2 | 7:10.45 | 6:07.33 | 32295 | 59852
3 | 13:18.03 | 5:46.30 | 59853 | 85832
4 | 19:04.33 | 5:29.62 | 85833 | 110569
5 | 24:34.20 | 7:32.60 | 110570 | 144529
6 | 32:07.05 | 5:28.38 | 144530 | 169167
Track 1
Filename F:\1989.Archie Shepp - Day Dream\01. Don't You Know I Care.wav
Pre-gap length 0:00:02.00
Peak level 80.8 %
Extraction speed 2.5 X
Track quality 99.9 %
Test CRC 4DD381B8
Copy CRC 4DD381B8
Accurately ripped (confidence 3) [F96C7498] (AR v2)
Copy OK
Track 2
Filename F:\1989.Archie Shepp - Day Dream\02. Caravan.wav
Pre-gap length 0:00:02.72
Peak level 100.0 %
Extraction speed 3.0 X
Track quality 100.0 %
Test CRC A41C8A02
Copy CRC A41C8A02
Accurately ripped (confidence 3) [54BF8CE8] (AR v2)
Copy OK
Track 3
Filename F:\1989.Archie Shepp - Day Dream\03. Day Dream.wav
Pre-gap length 0:00:03.08
Peak level 66.9 %
Extraction speed 3.2 X
Track quality 100.0 %
Test CRC 4BBBAE62
Copy CRC 4BBBAE62
Accurately ripped (confidence 3) [42195F10] (AR v2)
Copy OK
Track 4
Filename F:\1989.Archie Shepp - Day Dream\04. Satin Doll.wav
Pre-gap length 0:00:02.73
Peak level 98.1 %
Extraction speed 3.4 X
Track quality 100.0 %
Test CRC FFB01157
Copy CRC FFB01157
Accurately ripped (confidence 3) [86EED32C] (AR v2)
Copy OK
Track 5
Filename F:\1989.Archie Shepp - Day Dream\05. I Got It Bad and That Ain't Good.wav
Pre-gap length 0:00:03.20
Peak level 84.4 %
Extraction speed 3.4 X
Track quality 99.9 %
Test CRC 591D7805
Copy CRC 591D7805
Accurately ripped (confidence 3) [DB230CC3] (AR v2)
Copy OK
Track 6
Filename F:\1989.Archie Shepp - Day Dream\06. Prelude to a Kiss.wav
Pre-gap length 0:00:02.40
Peak level 76.9 %
Extraction speed 3.7 X
Track quality 100.0 %
Test CRC 0AA2DEB0
Copy CRC 0AA2DEB0
Accurately ripped (confidence 3) [31BA00D1] (AR v2)
Copy OK
All tracks accurately ripped
No errors occurred
End of status report
==== Log checksum C7F909BA9B330EE9C6D8330672BA5FCE5E7384E867B9F3A14BC053F0B03EF3DF ====
 
Содержание индексной карты (.CUE)
REM GENRE Jazz
REM DATE 1977
REM DISCID 4608CF06
REM COMMENT "ExactAudioCopy v1.0b3"
PERFORMER "Archie Shepp"
TITLE "Day Dream"
FILE "01. Don't You Know I Care.wav" WAVE
TRACK 01 AUDIO
TITLE "Don't You Know I Care"
PERFORMER "Archie Shepp"
INDEX 01 00:00:00
TRACK 02 AUDIO
TITLE "Caravan"
PERFORMER "Archie Shepp"
INDEX 00 07:07:48
FILE "02. Caravan.wav" WAVE
INDEX 01 00:00:00
TRACK 03 AUDIO
TITLE "Day Dream"
PERFORMER "Archie Shepp"
INDEX 00 06:04:25
FILE "03. Day Dream.wav" WAVE
INDEX 01 00:00:00
TRACK 04 AUDIO
TITLE "Satin Doll"
PERFORMER "Archie Shepp"
INDEX 00 05:43:32
FILE "04. Satin Doll.wav" WAVE
INDEX 01 00:00:00
TRACK 05 AUDIO
TITLE "I Got It Bad and That Ain't Good"
PERFORMER "Archie Shepp"
INDEX 00 05:26:42
FILE "05. I Got It Bad and That Ain't Good.wav" WAVE
INDEX 01 00:00:00
TRACK 06 AUDIO
TITLE "Prelude to a Kiss"
PERFORMER "Archie Shepp"
INDEX 00 07:30:20
FILE "06. Prelude to a Kiss.wav" WAVE
INDEX 01 00:00:00
 
Состав
Archie Shepp - ts, ss
Walter Davis - p
Earl May - b
Philly Joe Jones - drRecorded at A&R Studio, New York on June 3, 1977.
По всем вопросам пишите личное сообщение пользователю M0p94ok.
22:08
289
Нет комментариев. Ваш будет первым!