Вы используете незарегистрированную версию компонента "Вкладки"!

Поиск

(Free Jazz) [CD] Steve Lehman Quartet (Jonathan Finlayson, John Hebert, Nasheet Waits) - Manifold - 2007, FLAC (image+.cue), lossless

(Free Jazz) [CD] Steve Lehman Quartet (Jonathan Finlayson, John Hebert, Nasheet Waits) - Manifold - 2007, FLAC (image+.cue), lossless
Треклист:
Steve Lehman Quartet / Manifold
Жанр: Free Jazz
Носитель: CD
Страна-производитель диска: Portugal
Год издания: 2007
Издатель (лейбл): Clean Feed
Номер по каталогу: CF097CD
Аудиокодек: FLAC (*.flac)
Тип рипа: image+.cue
Битрейт аудио: lossless
Продолжительность: 50:59
Источник (релизер): CD
Наличие сканов в содержимом раздачи: нет
Треклист:
1 Interface D 5:38
2 Is This Rhythm? 2:35
3 Dusk 11:20
4 Interface F 5:51
5 Interface C 5:02
6 Cloak & Dagger 5:42
7 Interface A 4:45
8 Berceuse 6:08
9 For Evan Parker 3:53
 
Лог создания рипа
Exact Audio Copy V1.0 beta 2 from 29. April 2011
EAC extraction logfile from 27. April 2014, 18:22
Steve Lehman Quartet / Manifold
Used drive : Optiarc DVD RW AD-7170A Adapter: 0 ID: 0
Read mode : Secure
Utilize accurate stream : Yes
Defeat audio cache : Yes
Make use of C2 pointers : No
Read offset correction : 48
Overread into Lead-In and Lead-Out : No
Fill up missing offset samples with silence : Yes
Delete leading and trailing silent blocks : No
Null samples used in CRC calculations : Yes
Used interface : Native Win32 interface for Win NT & 2000
Used output format : User Defined Encoder
Selected bitrate : 320 kBit/s
Quality : High
Add ID3 tag : No
Command line compressor : C:\Program Files\Exact Audio Copy\Flac\flac.exe
Additional command line options : -V -8 -T "Date=%year%" -T "Genre=%genre%" %source%
TOC of the extracted CD
Track | Start | Length | Start sector | End sector
---------------------------------------------------------
1 | 0:00.00 | 5:38.16 | 0 | 25365
2 | 5:38.16 | 2:35.55 | 25366 | 37045
3 | 8:13.71 | 11:20.68 | 37046 | 88113
4 | 19:34.64 | 5:51.68 | 88114 | 114506
5 | 25:26.57 | 5:02.09 | 114507 | 137165
6 | 30:28.66 | 5:42.72 | 137166 | 162887
7 | 36:11.63 | 4:45.66 | 162888 | 184328
8 | 40:57.54 | 6:08.39 | 184329 | 211967
9 | 47:06.18 | 3:53.03 | 211968 | 229445
Range status and errors
Selected range
Filename K:\ЕАС\Steve Lehman Quartet - Manifold.wav
Peak level 99.4 %
Extraction speed 1.9 X
Range quality 100.0 %
Test CRC AC6204C5
Copy CRC AC6204C5
Copy OK
No errors occurred
AccurateRip summary
Track 1 accurately ripped (confidence 2) [874CDA86] (AR v1)
Track 2 accurately ripped (confidence 2) [D21A4FB3] (AR v2)
Track 3 accurately ripped (confidence 2) [01A7CBDF] (AR v2)
Track 4 accurately ripped (confidence 2) [6E78C0E1] (AR v2)
Track 5 accurately ripped (confidence 2) [D4CE21F2] (AR v2)
Track 6 accurately ripped (confidence 2) [A85D4C6C] (AR v2)
Track 7 accurately ripped (confidence 2) [D43EE38F] (AR v2)
Track 8 accurately ripped (confidence 2) [671152B0] (AR v2)
Track 9 accurately ripped (confidence 2) [BE776490] (AR v2)
All tracks accurately ripped
End of status report
==== Log checksum CB513D52DA30ADA1E9F435DB68F9D30AEE2BB89976ABD198156E5289166FBB46 ====
 
Содержание индексной карты (.CUE)
REM GENRE Jazz
REM DATE 2007
REM DISCID 7B0BF309
REM COMMENT "ExactAudioCopy v1.0b2"
PERFORMER "Steve Lehman Quartet"
TITLE "Manifold"
FILE "Steve Lehman Quartet - Manifold.flac" WAVE
TRACK 01 AUDIO
TITLE "Interface D"
PERFORMER "Steve Lehman Quartet"
ISRC 000000000000
INDEX 01 00:00:00
TRACK 02 AUDIO
TITLE "Is This Rhythm"
PERFORMER "Steve Lehman Quartet"
ISRC 000000000000
INDEX 01 05:38:16
TRACK 03 AUDIO
TITLE "Dusk"
PERFORMER "Steve Lehman Quartet"
ISRC 000000000000
INDEX 01 08:13:71
TRACK 04 AUDIO
TITLE "Interface F"
PERFORMER "Steve Lehman Quartet"
ISRC 000000000000
INDEX 01 19:34:64
TRACK 05 AUDIO
TITLE "Interface C"
PERFORMER "Steve Lehman Quartet"
ISRC 000000000000
INDEX 01 25:26:57
TRACK 06 AUDIO
TITLE "Cloak & Dagger"
PERFORMER "Steve Lehman Quartet"
ISRC 000000000000
INDEX 01 30:28:66
TRACK 07 AUDIO
TITLE "Interface A"
PERFORMER "Steve Lehman Quartet"
ISRC 000000000000
INDEX 01 36:11:63
TRACK 08 AUDIO
TITLE "Berceuse"
PERFORMER "Steve Lehman Quartet"
ISRC 000000000000
INDEX 01 40:57:54
TRACK 09 AUDIO
TITLE "For Evan Parker"
PERFORMER "Steve Lehman Quartet"
ISRC 000000000000
INDEX 01 47:06:18
Доп. информация: Recorded live in 2007 as part of the Jazz ao Centro Festival in Coimbra, Portugal, Manifold
 
Об альбоме (сборнике)
Since bursting onto the international creative music scene in 2004 with Interface (Clean Feed 22) and Artificial Light (Fresh Sound 186), Steve Lehman has quickly established a reputation for creating cutting-edge music, both as a fiercely imaginative saxophonist and as a young visionary composer. Much has been made of Lehman’s tutelage under Jackie McLean and Anthony Braxton, as well as his more recent collaborations (both as side person and leader) with musicians associated with the M-Base school (Vijay Iyer, Liberty Ellman, and Jonathan Finlayson, most notably). But what emerges in Lehman’s music is a unique synthesis and transformation of the various aspects of his on-going study of music. The simple fact is that, at 28, Lehman has already laid down a musical gauntlet that very few modern improvisers are equipped to deal with. One is hard pressed to think of another saxophonist, at any age, capable of flourishing in bands led and co-led by Meshell Ndegeocello, Dave Burrell, Vijay Iyer, and Anthony Braxton; a composite context that requires a mastery of advanced experimental instrumental techniques, an ability to create explosive improvisations in the most highly structured and exigent of musical settings, and a deeply rooted rhythmic sense. Couple his prowess as a saxophonist with his current doctoral studies of composition and computer music at Columbia University in New York (under composers Tristan Murail and George Lewis), and it becomes clear that Lehman has arrived as a key figure in the contemporary music landscape.
But make no mistake; Lehman’s music is not about postmodern pastiche. And though he draws inspiration from a diverse set of musical sources, his music never fails to reveal his modernist commitment to innovation and progress through serious research and focused work. Nowhere is this made more apparent than on Manifold, his new quartet record for the Clean Feed label, featuring long-time collaborators Jonathan Finlayson (Trumpet), John Hebert (Bass), and Nasheet Waits (Drums). Much of the music on Manifold is representative of a new, highly structured approach to open improvisation, in which formalism, reflection, and extreme technical precision co-exist with spontaneity and real-time decision-making. The near-telepathic interaction of the four ensemble members underscores the crucial and fundamentally compositional nature of deciding who plays together. Throughout Manifold, Lehman, Finlayson, Waits, and Hebert demonstrate an uncanny ability to create bracingly original music in compositional contexts ranging from Dusk, the quartet’s powerful tribute to pianist/composer Andrew Hill; to Cloak and Dagger, Lehman’s rhythmically complex miniature; to Interface, a series of frameworks for open improvisation that call for the members of Lehman’s quartet to play with great rhythmic precision and formal nuance. Recorded live in 2007 as part of the Jazz ao Centro Festival in Coimbra, Portugal, Manifold is the third title in the JACC Series (established to document exceptional performances from the Jazz ao Centro Festival), which is produced by the Portuguese label Clean Feed. Knowing that Interface (recorded by Lehman’s Camouflage Trio with Mark Dresser and Pheeroan akLaff in 2004) was the first recording in the JACC series, one gets a good idea of the excitement that Lehman’s music has produced in Portugal and beyond. With Manifold Lehman continues to deliver on the promise of his early career and to assert the status bestowed upon him by The WIRE in 2004 as “the man to watch on the ever-evolving New York scene.”
 
Состав
Alto Saxophone, Sopranino Saxophone – Steve Lehman
Bass – John Hebert
Drums – Nasheet Waits
Trumpet – Jonathan Finlayson
По всем вопросам пишите личное сообщение пользователю M0p94ok.
01:37
191
Нет комментариев. Ваш будет первым!