Вы используете незарегистрированную версию компонента "Вкладки"!

Поиск

(Clean Fead, Free Jazz, Post-Bop, Improvisation) [CD] Jonas Kullhammar, Espen Aalberg, Torbjorn Zetterberg - Basement Sessions Vol. 2 - 2014, FLAC (tracks+.cue), lossless

(Clean Fead, Free Jazz, Post-Bop, Improvisation) [CD] Jonas Kullhammar, Espen Aalberg, Torbjorn Zetterberg - Basement Sessions Vol. 2 - 2014, FLAC (tracks+.cue), lossless
Треклист:
Kullhammar
Aalberg
Zetterberg
Basement Sessions Vol. 2 Жанр: Free Jazz, Post-Bop, Improvisation
Страна-производитель диска: Portugal
Год издания: 2014
Издатель (лейбл): Clean Fead
Номер по каталогу: CF293
Страна: Sweden
Аудиокодек: FLAC (*.flac)
Тип рипа: tracks+.cue
Битрейт аудио: lossless
Продолжительность: 57:03
Источник (релизер): many thanks tdelyon
Наличие сканов: да
Треклист:
1. Moksha
2. Oort Cloud
3. Gluck
4. Triton
5. One for Joe
6. Elvins Birthday Song
7. Moserobie Blues
 
Лог создания рипа
Exact Audio Copy V1.0 beta 3 from 29. August 2011
EAC extraction logfile from 31. January 2014, 22:00
Jonas Kullhammar / Espen Aalberg / Torbjörn Zetterberg / Basement Sessions Vol. 2
Used drive : TSSTcorpCD/DVDW SH-S182M Adapter: 2 ID: 0
Read mode : Secure
Utilize accurate stream : Yes
Defeat audio cache : Yes
Make use of C2 pointers : No
Read offset correction : 6
Overread into Lead-In and Lead-Out : No
Fill up missing offset samples with silence : Yes
Delete leading and trailing silent blocks : No
Null samples used in CRC calculations : Yes
Used interface : Installed external ASPI interface
Gap handling : Appended to previous track
Used output format : User Defined Encoder
Selected bitrate : 1024 kBit/s
Quality : High
Add ID3 tag : No
Command line compressor : C:\Program Files\eac-1.0beta3\FLAC\FLAC.EXE
Additional command line options : -8 -V -T "ARTIST=%artist%" -T "TITLE=%title%" -T "ALBUM=%albumtitle%" -T "DATE=%year%" -T "TRACKNUMBER=%tracknr%" -T "GENRE=%genre%" -T "PERFORMER=%albuminterpret%" -T "COMPOSER=%composer%" %haslyrics%--tag-from-file=LYRICS="%lyricsfile%"%haslyrics% -T "ALBUMARTIST=%albumartist%" -T "ALBUM ARTIST=%albumartist%" -T "DISCNUMBER=%cdnumber%" -T "TOTALDISCS=%totalcds%" -T "TOTALTRACKS=%numtracks%" -T "COMMENT=ivo" %source% -o %dest%
TOC of the extracted CD
Track | Start | Length | Start sector | End sector
---------------------------------------------------------
1 | 0:00.00 | 9:48.63 | 0 | 44162
2 | 9:48.63 | 6:58.54 | 44163 | 75566
3 | 16:47.42 | 5:54.35 | 75567 | 102151
4 | 22:42.02 | 9:25.71 | 102152 | 144597
5 | 32:07.73 | 7:49.51 | 144598 | 179823
6 | 39:57.49 | 7:22.36 | 179824 | 213009
7 | 47:20.10 | 9:58.53 | 213010 | 257912
Track 1
Filename E:\igor\eac\01 - Moksha.wav
Pre-gap length 0:00:02.00
Peak level 100.0 %
Extraction speed 5.4 X
Track quality 100.0 %
Test CRC 4FFA92D8
Copy CRC 4FFA92D8
Track not present in AccurateRip database
Copy OK
Track 2
Filename E:\igor\eac\02 - Oort Cloud.wav
Pre-gap length 0:00:02.68
Peak level 100.0 %
Extraction speed 6.2 X
Track quality 100.0 %
Test CRC 60717AB8
Copy CRC 60717AB8
Track not present in AccurateRip database
Copy OK
Track 3
Filename E:\igor\eac\03 - Gluck.wav
Pre-gap length 0:00:02.24
Peak level 100.0 %
Extraction speed 6.6 X
Track quality 100.0 %
Test CRC 7890267B
Copy CRC 7890267B
Track not present in AccurateRip database
Copy OK
Track 4
Filename E:\igor\eac\04 - Triton.wav
Pre-gap length 0:00:02.20
Peak level 100.0 %
Extraction speed 7.4 X
Track quality 100.0 %
Test CRC EE86435D
Copy CRC EE86435D
Track not present in AccurateRip database
Copy OK
Track 5
Filename E:\igor\eac\05 - One for Joe.wav
Pre-gap length 0:00:02.14
Peak level 100.0 %
Extraction speed 7.9 X
Track quality 100.0 %
Test CRC 08AAAB45
Copy CRC 08AAAB45
Track not present in AccurateRip database
Copy OK
Track 6
Filename E:\igor\eac\06 - Elvins Birthday Song.wav
Pre-gap length 0:00:02.82
Peak level 100.0 %
Extraction speed 8.4 X
Track quality 100.0 %
Test CRC 594E4A8F
Copy CRC 594E4A8F
Track not present in AccurateRip database
Copy OK
Track 7
Filename E:\igor\eac\07 - Moserobie Blues.wav
Pre-gap length 0:00:02.78
Peak level 100.0 %
Extraction speed 9.1 X
Track quality 100.0 %
Test CRC 13294D3A
Copy CRC 13294D3A
Track not present in AccurateRip database
Copy OK
None of the tracks are present in the AccurateRip database
No errors occurred
End of status report
---- CUETools DB Plugin V2.1.4
[CTDB TOCID: Rv9VxU4NlBgBEUF4Jnvd0Tuqr_k-] disk not present in database
Submit result: Rv9VxU4NlBgBEUF4Jnvd0Tuqr_k- has been uploaded
==== Log checksum 3481089F78F3BD089ED533DAE2711881B29123AB019A202C555DC9CD7E87B05B ====
 
Содержание индексной карты (.CUE)
REM GENRE "Clean Feed 293"
REM DATE 2014
REM DISCID 640D6E07
REM COMMENT "ExactAudioCopy v1.0b3"
PERFORMER "Jonas Kullhammar, Espen Aalberg, Torbjorn Zetterberg"
TITLE "Basement Sessions Vol. 2"
FILE "01 - Moksha.wav" WAVE
TRACK 01 AUDIO
TITLE "Moksha"
PERFORMER "Jonas Kullhammar, Espen Aalberg, Torbjorn Zetterberg"
INDEX 01 00:00:00
TRACK 02 AUDIO
TITLE "Oort Cloud"
PERFORMER "Jonas Kullhammar, Espen Aalberg, Torbjorn Zetterberg"
INDEX 00 09:46:12
FILE "02 - Oort Cloud.wav" WAVE
INDEX 01 00:00:00
TRACK 03 AUDIO
TITLE "Gluck"
PERFORMER "Jonas Kullhammar, Espen Aalberg, Torbjorn Zetterberg"
INDEX 00 06:56:36
FILE "03 - Gluck.wav" WAVE
INDEX 01 00:00:00
TRACK 04 AUDIO
TITLE "Triton"
PERFORMER "Jonas Kullhammar, Espen Aalberg, Torbjorn Zetterberg"
INDEX 00 05:52:20
FILE "04 - Triton.wav" WAVE
INDEX 01 00:00:00
TRACK 05 AUDIO
TITLE "One for Joe"
PERFORMER "Jonas Kullhammar, Espen Aalberg, Torbjorn Zetterberg"
INDEX 00 09:23:60
FILE "05 - One for Joe.wav" WAVE
INDEX 01 00:00:00
TRACK 06 AUDIO
TITLE "Elvins Birthday Song"
PERFORMER "Jonas Kullhammar, Espen Aalberg, Torbjorn Zetterberg"
INDEX 00 07:46:64
FILE "06 - Elvins Birthday Song.wav" WAVE
INDEX 01 00:00:00
TRACK 07 AUDIO
TITLE "Moserobie Blues"
PERFORMER "Jonas Kullhammar, Espen Aalberg, Torbjorn Zetterberg"
INDEX 00 07:19:52
FILE "07 - Moserobie Blues.wav" WAVE
INDEX 01 00:00:00
 
Об альбоме
This is the second installment of the Swedish trio's manifold and largely, hard-hitting Basement Sessions motif for Clean Feed Records. And while the artists incorporate a high level of experimentation, they intertwine old school jazz values into the big picture via structured compositions and free-flight improvisations amid an aggregation of contrasting hues, capacious soundscapes and more. From a trio standpoint, the musicians bring quite a bit to the forefront. They expand, contract and generate some blazing, red-zone like turbulence with a few sizzling, free-bop style workouts
Reedman Jonas Kullhammar uses the Hungarian clarinet-like instrument taragato on the opening track, "Moksha." He projects an off-center soundstage with this single reed, woodwind instrument that has a plump and rather hollow resonance. But the artists shift the tide on a per-track basis. For instance on "Oort Cloud," Kullhammar, performing on tenor sax, glides atop a jazz-waltz pulse with reverberating and singing notes, rooted with a bluesy swagger, leading to the band's downpour of free form dialogues and accelerated by the rhythm section's mounting force-field. However, the diverse mix is chock full of unanticipated surprises such as "Elvin's Birthday Song," highlighted by Kullhammar's lighthearted and bouncy soprano sax phrasings, and steered by bassist Torbjörn Zetterberg who anchors the flow and pitch. Here, drummer Espen Aalberg expands the soundscape with sweeping fills and polyrhythmic beats.
The trio spirals into the stratosphere on the final track, "Moserobie Blues." Kullhammar's extended tenor sax solo, is perhaps a stylistic nod to John Coltrane's awe inspiring hard bop solos, evidenced on Blue Trane (Blue Note Records, 1957), for example. Thus, Kullhammar's rapidly paced and blistering harmonic progressions enact a whirlwind exposition atop the rhythm section's whizzing pulse. Indeed, a high-caliber and multidimensional outing by this resourceful unit. (Glenn Astarita, AllAboutJazz)
 
Состав

Jonas Kullhammar - tenor saxophone, soprano saxophone, faragto
Torbjörn Zetterberg - double bass
Espen Aalberg - drums
VOLUME 1
По всем вопросам пишите личное сообщение пользователю M0p94ok.
01:37
168
Нет комментариев. Ваш будет первым!