Вы используете незарегистрированную версию компонента "Вкладки"!

Поиск

(Avant-Garde Jazz, Free Improvisation, FMP) [CD] Schlippenbach Quartet (Alexander von Schlippenbach, Evan Parker, Peter Kowald, Paul Lovens) - At Quartier Latin - 1977, FLAC (tracks+.cue), lossless

(Avant-Garde Jazz, Free Improvisation, FMP) [CD] Schlippenbach Quartet (Alexander von Schlippenbach, Evan Parker, Peter Kowald, Paul Lovens) - At Quartier Latin - 1977, FLAC (tracks+.cue), lossless
Треклист:
Schlippenbach Quartet / At Quartier Latin
Жанр: Avant-Garde Jazz, Free Improvisation, FMP
Носитель: CD
Страна-производитель диска: Germany
Год издания: 2010
Издатель (лейбл): FMP Records
Номер по каталогу: FMP CD 140
Страна: Germany, UK
Аудиокодек: FLAC (*.flac)
Тип рипа: tracks+.cue
Битрейт аудио: lossless
Продолжительность: 56:54
Источник (релизер): waffles.fm, mattdrummist
Наличие сканов в содержимом раздачи:
Треклист:
1975
1 Black Holes 11:56
2 Three Nails Left: For P.L. 4:12
1977
3 The Hidden Peak I 4:18
4 The Hidden Peak II 8:13
5 The Hidden Peak III 5:23
6 The Hidden Peak IV 5:47
7 The Hidden Peak V 17:01
 
Лог создания рипа
X Lossless Decoder version 20121027 (142.1)
XLD extraction logfile from 2012-11-26 02:50:00 +0300
Schlippenbach Quartet / At Quarter Latin
Used drive : MATSHITA CD-RW CW-8221 (revision GA0K)
Ripper mode : XLD Secure Ripper
Disable audio cache : OK for the drive with a cache less than 1375KiB
Make use of C2 pointers : NO
Read offset correction : 102
Max retry count : 20
Gap status : Analyzed, Appended (except HTOA)
TOC of the extracted CD
Track | Start | Length | Start sector | End sector
---------------------------------------------------------
1 | 00:00:00 | 11:56:18 | 0 | 53717
2 | 11:56:18 | 04:12:67 | 53718 | 72684
3 | 16:09:10 | 04:18:70 | 72685 | 92104
4 | 20:28:05 | 08:13:03 | 92105 | 129082
5 | 28:41:08 | 05:23:61 | 129083 | 153368
6 | 34:04:69 | 05:47:24 | 153369 | 179417
7 | 39:52:18 | 17:01:62 | 179418 | 256054
AccurateRip Summary (DiscID: 000e49f1-0054e603-540d5607)
Track 01 : OK (v2, confidence 1/1)
Track 02 : OK (v2, confidence 1/1)
Track 03 : OK (v2, confidence 1/1)
Track 04 : OK (v2, confidence 1/1)
Track 05 : OK (v2, confidence 1/1)
Track 06 : OK (v2, confidence 1/1)
Track 07 : OK (v2, confidence 1/1)
->All tracks accurately ripped.
All Tracks
Album gain : -2.23 dB
Peak : 0.792786
Statistics
Read error : 0
Jitter error (maybe fixed) : 0
Retry sector count : 0
Damaged sector count : 0
Track 01
Filename : /My/Music/_Grabbed/Schlippenbach Quartet - 2010 - At Quarter Latin [FLAC]/01 - Black Holes.flac
/My/Music/_Grabbed/Schlippenbach Quartet - 2010 - At Quarter Latin [MP3 320]/01 - Black Holes.mp3
/My/Music/_Grabbed/Schlippenbach Quartet - 2010 - At Quarter Latin [MP3 V0]/01 - Black Holes.mp3
Pre-gap length : 00:02:00
Track gain : -2.04 dB
Peak : 0.765747
CRC32 hash (test run) : 9BC0D417
CRC32 hash : 9BC0D417
CRC32 hash (skip zero) : 2F0E15E1
AccurateRip v1 signature : B49A46E9
AccurateRip v2 signature : 96D1D5EA
->Accurately ripped (v2, confidence 1/1)
Statistics
Read error : 0
Jitter error (maybe fixed) : 0
Retry sector count : 0
Damaged sector count : 0
Track 02
Filename : /My/Music/_Grabbed/Schlippenbach Quartet - 2010 - At Quarter Latin [FLAC]/02 - Three Nails Left, For P. L..flac
/My/Music/_Grabbed/Schlippenbach Quartet - 2010 - At Quarter Latin [MP3 320]/02 - Three Nails Left, For P. L..mp3
/My/Music/_Grabbed/Schlippenbach Quartet - 2010 - At Quarter Latin [MP3 V0]/02 - Three Nails Left, For P. L..mp3
Track gain : 7.04 dB
Peak : 0.765747
CRC32 hash (test run) : DE7A410D
CRC32 hash : DE7A410D
CRC32 hash (skip zero) : 32E27EFD
AccurateRip v1 signature : BE51DA2B
AccurateRip v2 signature : 56EA26EB
->Accurately ripped (v2, confidence 1/1)
Statistics
Read error : 0
Jitter error (maybe fixed) : 0
Retry sector count : 0
Damaged sector count : 0
Track 03
Filename : /My/Music/_Grabbed/Schlippenbach Quartet - 2010 - At Quarter Latin [FLAC]/03 - The Hidden Peak I.flac
/My/Music/_Grabbed/Schlippenbach Quartet - 2010 - At Quarter Latin [MP3 320]/03 - The Hidden Peak I.mp3
/My/Music/_Grabbed/Schlippenbach Quartet - 2010 - At Quarter Latin [MP3 V0]/03 - The Hidden Peak I.mp3
Track gain : -5.44 dB
Peak : 0.768097
CRC32 hash (test run) : 5EF4F95A
CRC32 hash : 5EF4F95A
CRC32 hash (skip zero) : 33AC6BC0
AccurateRip v1 signature : CDD54962
AccurateRip v2 signature : 6AE0E417
->Accurately ripped (v2, confidence 1/1)
Statistics
Read error : 0
Jitter error (maybe fixed) : 0
Retry sector count : 0
Damaged sector count : 0
Track 04
Filename : /My/Music/_Grabbed/Schlippenbach Quartet - 2010 - At Quarter Latin [FLAC]/04 - The Hidden Peak II.flac
/My/Music/_Grabbed/Schlippenbach Quartet - 2010 - At Quarter Latin [MP3 320]/04 - The Hidden Peak II.mp3
/My/Music/_Grabbed/Schlippenbach Quartet - 2010 - At Quarter Latin [MP3 V0]/04 - The Hidden Peak II.mp3
Track gain : -2.20 dB
Peak : 0.787598
CRC32 hash (test run) : 71F9D43E
CRC32 hash : 71F9D43E
CRC32 hash (skip zero) : E110D1CB
AccurateRip v1 signature : 7670C8FC
AccurateRip v2 signature : 83AFDA4C
->Accurately ripped (v2, confidence 1/1)
Statistics
Read error : 0
Jitter error (maybe fixed) : 0
Retry sector count : 0
Damaged sector count : 0
Track 05
Filename : /My/Music/_Grabbed/Schlippenbach Quartet - 2010 - At Quarter Latin [FLAC]/05 - The Hidden Peak III.flac
/My/Music/_Grabbed/Schlippenbach Quartet - 2010 - At Quarter Latin [MP3 320]/05 - The Hidden Peak III.mp3
/My/Music/_Grabbed/Schlippenbach Quartet - 2010 - At Quarter Latin [MP3 V0]/05 - The Hidden Peak III.mp3
Track gain : -1.76 dB
Peak : 0.599457
CRC32 hash (test run) : A8524FE6
CRC32 hash : A8524FE6
CRC32 hash (skip zero) : 383BA7DC
AccurateRip v1 signature : FFF6E7C1
AccurateRip v2 signature : 4627CF7D
->Accurately ripped (v2, confidence 1/1)
Statistics
Read error : 0
Jitter error (maybe fixed) : 0
Retry sector count : 0
Damaged sector count : 0
Track 06
Filename : /My/Music/_Grabbed/Schlippenbach Quartet - 2010 - At Quarter Latin [FLAC]/06 - The Hidden Peak IV.flac
/My/Music/_Grabbed/Schlippenbach Quartet - 2010 - At Quarter Latin [MP3 320]/06 - The Hidden Peak IV.mp3
/My/Music/_Grabbed/Schlippenbach Quartet - 2010 - At Quarter Latin [MP3 V0]/06 - The Hidden Peak IV.mp3
Track gain : -0.95 dB
Peak : 0.738556
CRC32 hash (test run) : B2635983
CRC32 hash : B2635983
CRC32 hash (skip zero) : B159244F
AccurateRip v1 signature : AB73CD84
AccurateRip v2 signature : 55220DD1
->Accurately ripped (v2, confidence 1/1)
Statistics
Read error : 0
Jitter error (maybe fixed) : 0
Retry sector count : 0
Damaged sector count : 0
Track 07
Filename : /My/Music/_Grabbed/Schlippenbach Quartet - 2010 - At Quarter Latin [FLAC]/07 - The Hidden Peak V.flac
/My/Music/_Grabbed/Schlippenbach Quartet - 2010 - At Quarter Latin [MP3 320]/07 - The Hidden Peak V.mp3
/My/Music/_Grabbed/Schlippenbach Quartet - 2010 - At Quarter Latin [MP3 V0]/07 - The Hidden Peak V.mp3
Track gain : -2.47 dB
Peak : 0.792786
CRC32 hash (test run) : 558FE445
CRC32 hash : 558FE445
CRC32 hash (skip zero) : 5A991CB9
AccurateRip v1 signature : 7E703F2C
AccurateRip v2 signature : 91025259
->Accurately ripped (v2, confidence 1/1)
Statistics
Read error : 0
Jitter error (maybe fixed) : 0
Retry sector count : 0
Damaged sector count : 0
No errors occurred
End of status report
 
Содержание индексной карты (.CUE)
TITLE "At Quarter Latin"
PERFORMER "Schlippenbach Quartet"
REM GENRE "Free Jazz"
REM DATE "2010"
REM DISCID 540D5607
REM REPLAYGAIN_ALBUM_GAIN -2.23 dB
REM REPLAYGAIN_ALBUM_PEAK 0.792786
FILE "01 - Black Holes.flac" WAVE
TRACK 01 AUDIO
TITLE "Black Holes"
SONGWRITER "Evan Parker"
REM REPLAYGAIN_TRACK_GAIN -2.04 dB
REM REPLAYGAIN_TRACK_PEAK 0.765747
INDEX 01 00:00:00
FILE "02 - Three Nails Left, For P. L..flac" WAVE
TRACK 02 AUDIO
TITLE "Three Nails Left, For P. L."
SONGWRITER "Paul Lovens"
REM REPLAYGAIN_TRACK_GAIN 7.04 dB
REM REPLAYGAIN_TRACK_PEAK 0.765747
INDEX 01 00:00:00
FILE "03 - The Hidden Peak I.flac" WAVE
TRACK 03 AUDIO
TITLE "The Hidden Peak I"
REM REPLAYGAIN_TRACK_GAIN -5.44 dB
REM REPLAYGAIN_TRACK_PEAK 0.768097
INDEX 01 00:00:00
FILE "04 - The Hidden Peak II.flac" WAVE
TRACK 04 AUDIO
TITLE "The Hidden Peak II"
REM REPLAYGAIN_TRACK_GAIN -2.20 dB
REM REPLAYGAIN_TRACK_PEAK 0.787598
INDEX 01 00:00:00
FILE "05 - The Hidden Peak III.flac" WAVE
TRACK 05 AUDIO
TITLE "The Hidden Peak III"
SONGWRITER "Schlippenbach Quartet"
REM REPLAYGAIN_TRACK_GAIN -1.76 dB
REM REPLAYGAIN_TRACK_PEAK 0.599457
INDEX 01 00:00:00
FILE "06 - The Hidden Peak IV.flac" WAVE
TRACK 06 AUDIO
TITLE "The Hidden Peak IV"
SONGWRITER "Schlippenbach Quartet"
REM REPLAYGAIN_TRACK_GAIN -0.95 dB
REM REPLAYGAIN_TRACK_PEAK 0.738556
INDEX 01 00:00:00
FILE "07 - The Hidden Peak V.flac" WAVE
TRACK 07 AUDIO
TITLE "The Hidden Peak V"
SONGWRITER "Schlippenbach Quartet"
REM REPLAYGAIN_TRACK_GAIN -2.47 dB
REM REPLAYGAIN_TRACK_PEAK 0.792786
INDEX 01 00:00:00
 
Лог проверки качества
d:\>d:\aucdtect -d/-m0 d:\zzz\*.wav
auCDtect: CD records authenticity detector, version 0.8.2
Copyright (c) 2004 Oleg Berngardt. All rights reserved.
Copyright (c) 2004 Alexander Djourik. All rights reserved.
------------------------------------------------------------
Processing file: [01. Black Holes.wav]
------------------------------------------------------------
This track looks like CDDA with probability 100%
------------------------------------------------------------
Processing file: [02. Three Nails Left, For P. L..wav]
------------------------------------------------------------
This track looks like CDDA with probability 100%
------------------------------------------------------------
Processing file: [03. The Hidden Peak I.wav]
------------------------------------------------------------
This track looks like CDDA with probability 100%
------------------------------------------------------------
Processing file: [04. The Hidden Peak II.wav]
------------------------------------------------------------
This track looks like CDDA with probability 100%
------------------------------------------------------------
Processing file: [05. The Hidden Peak III.wav]
------------------------------------------------------------
This track looks like CDDA with probability 100%
------------------------------------------------------------
Processing file: [06. The Hidden Peak IV.wav]
------------------------------------------------------------
This track looks like CDDA with probability 100%
------------------------------------------------------------
Processing file: [07. The Hidden Peak V.wav]
------------------------------------------------------------
This track looks like CDDA with probability 100%
------------------------------------------------------------
Final Conclusion:
------------------------------------------------------------
These tracks looks like CDDA with probability 100%
 
Состав
Bass – Peter Kowald
Drums, Photography By [Front] – Paul Lovens
Piano – Alexander Von Schlippenbach
Soprano Saxophone, Tenor Saxophone – Evan Parker
Recording dates:
Tracks 1 & 2 live on 2 February 1975
Tracks 3 to 7 on 27/28 January 1977
all at the Quartier Latin, Berlin
По всем вопросам пишите личное сообщение пользователю M0p94ok.
01:36
159
Нет комментариев. Ваш будет первым!