Вы используете незарегистрированную версию компонента "Вкладки"!

Поиск

(Avant-Garde Jazz, Free Improvisation, FMP) [CD] Radu Malfatti & Stephan Wittwer - Und?... Plus - 1978, FLAC (tracks+.cue), lossless

(Avant-Garde Jazz, Free Improvisation, FMP) [CD] Radu Malfatti & Stephan Wittwer - Und?... Plus - 1978, FLAC (tracks+.cue), lossless
Треклист:
Radu Malfatti & Stephan Wittwer / Und?... Plus
Жанр: Avant-Garde Jazz, Free Improvisation, FMP
Носитель: CD
Страна-производитель диска: Germany
Год издания: 2010
Издатель (лейбл): FMP Records
Номер по каталогу: FMP CD 142
Страна: Germany
Аудиокодек: FLAC (*.flac)
Тип рипа: tracks+.cue
Битрейт аудио: lossless
Продолжительность: 54:48
Источник (релизер): waffles.fm, mattdrummist
Наличие сканов в содержимом раздачи:
Треклист:
1 Und? 9:43
2 So 11:22
3 'tis A Point 3:18
4 Cotpotok (Still Valid) 16:10
5 Untitled? 14:13
 
Лог создания рипа
X Lossless Decoder version 20121027 (142.1)
XLD extraction logfile from 2012-11-26 10:24:30 +0300
Radu Malfatti, Stephan Wittwer / UND? ...Plus
Used drive : MATSHITA CD-RW CW-8221 (revision GA0K)
Ripper mode : XLD Secure Ripper
Disable audio cache : OK for the drive with a cache less than 1375KiB
Make use of C2 pointers : NO
Read offset correction : 102
Max retry count : 20
Gap status : Analyzed, Appended (except HTOA)
TOC of the extracted CD
Track | Start | Length | Start sector | End sector
---------------------------------------------------------
1 | 00:00:00 | 09:43:24 | 0 | 43748
2 | 09:43:24 | 11:22:43 | 43749 | 94941
3 | 21:05:67 | 03:18:41 | 94942 | 109832
4 | 24:24:33 | 16:10:11 | 109833 | 182593
5 | 40:34:44 | 14:13:65 | 182594 | 246633
AccurateRip Summary (DiscID: 000a5778-0030e54f-440cd805)
Track 01 : OK (v2, confidence 1/1)
Track 02 : OK (v2, confidence 1/1)
Track 03 : OK (v2, confidence 1/1)
Track 04 : OK (v2, confidence 1/1)
Track 05 : OK (v2, confidence 1/1)
->All tracks accurately ripped.
All Tracks
Album gain : -2.57 dB
Peak : 0.792816
Statistics
Read error : 0
Jitter error (maybe fixed) : 0
Retry sector count : 3
Damaged sector count : 0
Track 01
Filename : /My/Music/_Grabbed/Radu Malfatti, Stephan Wittwer - 2010 - UND? ...Plus [FLAC]/01 - Und?.flac
/My/Music/_Grabbed/Radu Malfatti, Stephan Wittwer - 2010 - UND? ...Plus [MP3 320]/01 - Und?.mp3
/My/Music/_Grabbed/Radu Malfatti, Stephan Wittwer - 2010 - UND? ...Plus [MP3 V0]/01 - Und?.mp3
Pre-gap length : 00:02:00
Track gain : -1.28 dB
Peak : 0.792816
CRC32 hash (test run) : 62125E2B
CRC32 hash : 62125E2B
CRC32 hash (skip zero) : 228A1892
AccurateRip v1 signature : 1EC8E0D6
AccurateRip v2 signature : 6B45251C
->Accurately ripped (v2, confidence 1/1)
Statistics
Read error : 0
Jitter error (maybe fixed) : 0
Retry sector count : 0
Damaged sector count : 0
Track 02
Filename : /My/Music/_Grabbed/Radu Malfatti, Stephan Wittwer - 2010 - UND? ...Plus [FLAC]/02 - So.flac
/My/Music/_Grabbed/Radu Malfatti, Stephan Wittwer - 2010 - UND? ...Plus [MP3 320]/02 - So.mp3
/My/Music/_Grabbed/Radu Malfatti, Stephan Wittwer - 2010 - UND? ...Plus [MP3 V0]/02 - So.mp3
Track gain : -1.18 dB
Peak : 0.792816
CRC32 hash (test run) : 96E93B2D
CRC32 hash : 96E93B2D
CRC32 hash (skip zero) : BAF5D3DA
AccurateRip v1 signature : 64B6029B
AccurateRip v2 signature : 38350127
->Accurately ripped (v2, confidence 1/1)
Statistics
Read error : 0
Jitter error (maybe fixed) : 0
Retry sector count : 0
Damaged sector count : 0
Track 03
Filename : /My/Music/_Grabbed/Radu Malfatti, Stephan Wittwer - 2010 - UND? ...Plus [FLAC]/03 - 'Tis a Point.flac
/My/Music/_Grabbed/Radu Malfatti, Stephan Wittwer - 2010 - UND? ...Plus [MP3 320]/03 - 'Tis a Point.mp3
/My/Music/_Grabbed/Radu Malfatti, Stephan Wittwer - 2010 - UND? ...Plus [MP3 V0]/03 - 'Tis a Point.mp3
Track gain : -4.02 dB
Peak : 0.792786
CRC32 hash (test run) : E9D6E5E3
CRC32 hash : E9D6E5E3
CRC32 hash (skip zero) : F24AD277
AccurateRip v1 signature : 6F45B4AE
AccurateRip v2 signature : 9CFBFB97
->Accurately ripped (v2, confidence 1/1)
Statistics
Read error : 0
Jitter error (maybe fixed) : 0
Retry sector count : 0
Damaged sector count : 0
Track 04
Filename : /My/Music/_Grabbed/Radu Malfatti, Stephan Wittwer - 2010 - UND? ...Plus [FLAC]/04 - Cotpotok (still valid).flac
/My/Music/_Grabbed/Radu Malfatti, Stephan Wittwer - 2010 - UND? ...Plus [MP3 320]/04 - Cotpotok (still valid).mp3
/My/Music/_Grabbed/Radu Malfatti, Stephan Wittwer - 2010 - UND? ...Plus [MP3 V0]/04 - Cotpotok (still valid).mp3
Track gain : -1.71 dB
Peak : 0.792816
CRC32 hash (test run) : 90E1AB79
CRC32 hash : 90E1AB79
CRC32 hash (skip zero) : 35318606
AccurateRip v1 signature : F9DB76C3
AccurateRip v2 signature : 3DFB0F8C
->Accurately ripped (v2, confidence 1/1)
Statistics
Read error : 0
Jitter error (maybe fixed) : 0
Retry sector count : 0
Damaged sector count : 0
Track 05
Filename : /My/Music/_Grabbed/Radu Malfatti, Stephan Wittwer - 2010 - UND? ...Plus [FLAC]/05 - Untitled?.flac
/My/Music/_Grabbed/Radu Malfatti, Stephan Wittwer - 2010 - UND? ...Plus [MP3 320]/05 - Untitled?.mp3
/My/Music/_Grabbed/Radu Malfatti, Stephan Wittwer - 2010 - UND? ...Plus [MP3 V0]/05 - Untitled?.mp3
Track gain : -4.25 dB
Peak : 0.792816
CRC32 hash (test run) : B6BA8656
CRC32 hash : B6BA8656
CRC32 hash (skip zero) : 4179D508
AccurateRip v1 signature : BE1CE50E
AccurateRip v2 signature : F1B7DF0B
->Accurately ripped (v2, confidence 1/1)
Statistics
Read error : 0
Jitter error (maybe fixed) : 0
Retry sector count : 3
Damaged sector count : 0
No errors occurred
End of status report
 
Содержание индексной карты (.CUE)
TITLE "UND? ...Plus"
PERFORMER "Radu Malfatti, Stephan Wittwer"
REM GENRE "Free Jazz"
REM DATE "2010"
REM DISCID 440CD805
REM REPLAYGAIN_ALBUM_GAIN -2.57 dB
REM REPLAYGAIN_ALBUM_PEAK 0.792816
FILE "01 - Und.flac" WAVE
TRACK 01 AUDIO
TITLE "Und?"
REM REPLAYGAIN_TRACK_GAIN -1.28 dB
REM REPLAYGAIN_TRACK_PEAK 0.792816
INDEX 01 00:00:00
FILE "02 - So.flac" WAVE
TRACK 02 AUDIO
TITLE "So"
REM REPLAYGAIN_TRACK_GAIN -1.18 dB
REM REPLAYGAIN_TRACK_PEAK 0.792816
INDEX 01 00:00:00
FILE "03 - 'Tis a Point.flac" WAVE
TRACK 03 AUDIO
TITLE "'Tis a Point"
REM REPLAYGAIN_TRACK_GAIN -4.02 dB
REM REPLAYGAIN_TRACK_PEAK 0.792786
INDEX 01 00:00:00
FILE "04 - Cotpotok (still valid).flac" WAVE
TRACK 04 AUDIO
TITLE "Cotpotok (still valid)"
REM REPLAYGAIN_TRACK_GAIN -1.71 dB
REM REPLAYGAIN_TRACK_PEAK 0.792816
INDEX 01 00:00:00
FILE "05 - Untitled.flac" WAVE
TRACK 05 AUDIO
TITLE "Untitled?"
FLAGS DCP
REM REPLAYGAIN_TRACK_GAIN -4.25 dB
REM REPLAYGAIN_TRACK_PEAK 0.792816
INDEX 01 00:00:00
 
Лог проверки качества
d:\>d:\aucdtect -d/-m0 d:\zzz\*.wav
auCDtect: CD records authenticity detector, version 0.8.2
Copyright (c) 2004 Oleg Berngardt. All rights reserved.
Copyright (c) 2004 Alexander Djourik. All rights reserved.
------------------------------------------------------------
Processing file: [01. Und.wav]
------------------------------------------------------------
This track looks like CDDA with probability 100%
------------------------------------------------------------
Processing file: [02. So.wav]
------------------------------------------------------------
This track looks like CDDA with probability 100%
------------------------------------------------------------
Processing file: [03. 'Tis a Point.wav]
------------------------------------------------------------
This track looks like CDDA with probability 100%
------------------------------------------------------------
Processing file: [04. Cotpotok (still valid).wav]
------------------------------------------------------------
This track looks like CDDA with probability 100%
------------------------------------------------------------
Processing file: [05. Untitled.wav]
------------------------------------------------------------
This track looks like CDDA with probability 100%
------------------------------------------------------------
Final Conclusion:
------------------------------------------------------------
These tracks looks like CDDA with probability 100%
Доп. информация:
 
Состав
Guitar – Stephan Wittwer
Trombone, Design – Radu Malfatti
Recorded on 14 February 1977 in Innsbruck, Austria
По всем вопросам пишите личное сообщение пользователю M0p94ok.
01:35
171
Нет комментариев. Ваш будет первым!