Вы используете незарегистрированную версию компонента "Вкладки"!

Поиск

(Avant-Garde Jazz, Free Improvisation, FMP) [CD] Irene Schweizer, Rudiger Carl, Louis Moholo - Messer Und... - 1976, FLAC (tracks+.cue), lossless

(Avant-Garde Jazz, Free Improvisation, FMP) [CD] Irene Schweizer, Rudiger Carl, Louis Moholo - Messer Und... - 1976, FLAC (tracks+.cue), lossless
Треклист:
Irene Schweizer, Rudiger Carl, Louis Moholo / Messer Und...
Жанр: Avant-Garde Jazz, Free Improvisation, FMP
Носитель: CD
Страна-производитель диска: Germany
Год издания: 2010
Издатель (лейбл): FMP Records
Номер по каталогу: FMP CD 139
Страна: Germany, US
Аудиокодек: FLAC (*.flac)
Тип рипа: tracks+.cue
Битрейт аудио: lossless
Продолжительность: 57:03
Источник (релизер): waffles.fm, mattdrummist
Наличие сканов в содержимом раздачи:
Треклист:
Part A: Messer (1975)
1 Messer 10:51
2 Come-on-Bert 8:17
3 Göndsi Mitenand 8:27
4 Conn-Conn 9:47
Part B: Tuned Boots (1977)
5 Tuned Boots 19:40
 
Лог создания рипа
X Lossless Decoder version 20121027 (142.1)
XLD extraction logfile from 2012-11-26 02:24:41 +0300
RГјdiger Carl, IrГЁne Schweizer, Louis Moholo / Messer und...
Used drive : MATSHITA CD-RW CW-8221 (revision GA0K)
Ripper mode : XLD Secure Ripper
Disable audio cache : OK for the drive with a cache less than 1375KiB
Make use of C2 pointers : NO
Read offset correction : 102
Max retry count : 20
Gap status : Analyzed, Appended (except HTOA)
TOC of the extracted CD
Track | Start | Length | Start sector | End sector
---------------------------------------------------------
1 | 00:00:00 | 10:51:07 | 0 | 48831
2 | 10:51:07 | 08:17:06 | 48832 | 86112
3 | 19:08:13 | 08:27:41 | 86113 | 124178
4 | 27:35:54 | 09:47:43 | 124179 | 168246
5 | 37:23:22 | 19:40:36 | 168247 | 256782
AccurateRip Summary (DiscID: 000a707a-00315b5d-370d5f05)
Track 01 : OK (v2, confidence 2/2)
Track 02 : OK (v2, confidence 2/2)
Track 03 : OK (v2, confidence 2/2)
Track 04 : OK (v2, confidence 2/2)
Track 05 : OK (v2, confidence 2/2)
->All tracks accurately ripped.
All Tracks
Album gain : -4.79 dB
Peak : 0.792816
Statistics
Read error : 0
Jitter error (maybe fixed) : 0
Retry sector count : 0
Damaged sector count : 0
Track 01
Filename : /My/Music/_Grabbed/RГјdiger Carl, IrГЁne Schweizer, Louis Moholo - 2010 - Messer und... [FLAC]/01 - Messer.flac
/My/Music/_Grabbed/RГјdiger Carl, IrГЁne Schweizer, Louis Moholo - 2010 - Messer und... [MP3 320]/01 - Messer.mp3
/My/Music/_Grabbed/RГјdiger Carl, IrГЁne Schweizer, Louis Moholo - 2010 - Messer und... [MP3 V0]/01 - Messer.mp3
Pre-gap length : 00:02:00
Track gain : -3.24 dB
Peak : 0.792816
CRC32 hash (test run) : 072FCF13
CRC32 hash : 072FCF13
CRC32 hash (skip zero) : 34CC813D
AccurateRip v1 signature : 53618C82
AccurateRip v2 signature : 110DCB54
->Accurately ripped (v2, confidence 2/2)
Statistics
Read error : 0
Jitter error (maybe fixed) : 0
Retry sector count : 0
Damaged sector count : 0
Track 02
Filename : /My/Music/_Grabbed/RГјdiger Carl, IrГЁne Schweizer, Louis Moholo - 2010 - Messer und... [FLAC]/02 - Come-on-Bert.flac
/My/Music/_Grabbed/RГјdiger Carl, IrГЁne Schweizer, Louis Moholo - 2010 - Messer und... [MP3 320]/02 - Come-on-Bert.mp3
/My/Music/_Grabbed/RГјdiger Carl, IrГЁne Schweizer, Louis Moholo - 2010 - Messer und... [MP3 V0]/02 - Come-on-Bert.mp3
Track gain : -4.94 dB
Peak : 0.792816
CRC32 hash (test run) : 0E7DB0E2
CRC32 hash : 0E7DB0E2
CRC32 hash (skip zero) : 695616E7
AccurateRip v1 signature : 5BE3B73B
AccurateRip v2 signature : 79D94876
->Accurately ripped (v2, confidence 2/2)
Statistics
Read error : 0
Jitter error (maybe fixed) : 0
Retry sector count : 0
Damaged sector count : 0
Track 03
Filename : /My/Music/_Grabbed/Rüdiger Carl, Irène Schweizer, Louis Moholo - 2010 - Messer und... [FLAC]/03 - Göndsi Mitenand.flac
/My/Music/_Grabbed/Rüdiger Carl, Irène Schweizer, Louis Moholo - 2010 - Messer und... [MP3 320]/03 - Göndsi Mitenand.mp3
/My/Music/_Grabbed/Rüdiger Carl, Irène Schweizer, Louis Moholo - 2010 - Messer und... [MP3 V0]/03 - Göndsi Mitenand.mp3
Track gain : -4.41 dB
Peak : 0.792816
CRC32 hash (test run) : E1F2BBD2
CRC32 hash : E1F2BBD2
CRC32 hash (skip zero) : FD960581
AccurateRip v1 signature : D4149E2B
AccurateRip v2 signature : B8083DD8
->Accurately ripped (v2, confidence 2/2)
Statistics
Read error : 0
Jitter error (maybe fixed) : 0
Retry sector count : 0
Damaged sector count : 0
Track 04
Filename : /My/Music/_Grabbed/RГјdiger Carl, IrГЁne Schweizer, Louis Moholo - 2010 - Messer und... [FLAC]/04 - Conn-Conn.flac
/My/Music/_Grabbed/RГјdiger Carl, IrГЁne Schweizer, Louis Moholo - 2010 - Messer und... [MP3 320]/04 - Conn-Conn.mp3
/My/Music/_Grabbed/RГјdiger Carl, IrГЁne Schweizer, Louis Moholo - 2010 - Messer und... [MP3 V0]/04 - Conn-Conn.mp3
Track gain : -3.49 dB
Peak : 0.792786
CRC32 hash (test run) : 6EF82616
CRC32 hash : 6EF82616
CRC32 hash (skip zero) : 68CBA3D0
AccurateRip v1 signature : 806496D0
AccurateRip v2 signature : 50365E0A
->Accurately ripped (v2, confidence 2/2)
Statistics
Read error : 0
Jitter error (maybe fixed) : 0
Retry sector count : 0
Damaged sector count : 0
Track 05
Filename : /My/Music/_Grabbed/RГјdiger Carl, IrГЁne Schweizer, Louis Moholo - 2010 - Messer und... [FLAC]/05 - Tuned Boots.flac
/My/Music/_Grabbed/RГјdiger Carl, IrГЁne Schweizer, Louis Moholo - 2010 - Messer und... [MP3 320]/05 - Tuned Boots.mp3
/My/Music/_Grabbed/RГјdiger Carl, IrГЁne Schweizer, Louis Moholo - 2010 - Messer und... [MP3 V0]/05 - Tuned Boots.mp3
Track gain : -5.33 dB
Peak : 0.792816
CRC32 hash (test run) : 72170D7D
CRC32 hash : 72170D7D
CRC32 hash (skip zero) : EB0A58B9
AccurateRip v1 signature : 6F91B63B
AccurateRip v2 signature : CDA9B2CE
->Accurately ripped (v2, confidence 2/2)
Statistics
Read error : 0
Jitter error (maybe fixed) : 0
Retry sector count : 0
Damaged sector count : 0
No errors occurred
End of status report
 
Содержание индексной карты (.CUE)
TITLE "Messer und..."
PERFORMER "RГјdiger Carl, IrГЁne Schweizer, Louis Moholo"
REM GENRE "Free Jazz"
REM DATE "2010"
REM DISCID 370D5F05
REM REPLAYGAIN_ALBUM_GAIN -4.79 dB
REM REPLAYGAIN_ALBUM_PEAK 0.792816
FILE "01 - Messer.flac" WAVE
TRACK 01 AUDIO
TITLE "Messer"
SONGWRITER "RГјdiger Carl- Irene Schweizer-Louis Moholo"
REM REPLAYGAIN_TRACK_GAIN -3.24 dB
REM REPLAYGAIN_TRACK_PEAK 0.792816
INDEX 01 00:00:00
FILE "02 - Come-on-Bert.flac" WAVE
TRACK 02 AUDIO
TITLE "Come-on-Bert"
SONGWRITER "Irene Schweizer"
FLAGS DCP
REM REPLAYGAIN_TRACK_GAIN -4.94 dB
REM REPLAYGAIN_TRACK_PEAK 0.792816
INDEX 01 00:00:00
FILE "03 - Gondsi Mitenand.flac" WAVE
TRACK 03 AUDIO
TITLE "Göndsi Mitenand"
SONGWRITER "Irene Schweizer"
REM REPLAYGAIN_TRACK_GAIN -4.41 dB
REM REPLAYGAIN_TRACK_PEAK 0.792816
INDEX 01 00:00:00
FILE "04 - Conn-Conn.flac" WAVE
TRACK 04 AUDIO
TITLE "Conn-Conn"
SONGWRITER "RГјdiger Carl"
FLAGS DCP
REM REPLAYGAIN_TRACK_GAIN -3.49 dB
REM REPLAYGAIN_TRACK_PEAK 0.792786
INDEX 01 00:00:00
FILE "05 - Tuned Boots.flac" WAVE
TRACK 05 AUDIO
TITLE "Tuned Boots"
SONGWRITER "RГјdiger Carl- Irene Schweizer"
REM REPLAYGAIN_TRACK_GAIN -5.33 dB
REM REPLAYGAIN_TRACK_PEAK 0.792816
INDEX 01 00:00:00
 
Лог проверки качества
d:\>d:\aucdtect -d/-m0 d:\zzz\*.wav
auCDtect: CD records authenticity detector, version 0.8.2
Copyright (c) 2004 Oleg Berngardt. All rights reserved.
Copyright (c) 2004 Alexander Djourik. All rights reserved.
------------------------------------------------------------
Processing file: [01. Messer.wav]
------------------------------------------------------------
This track looks like CDDA with probability 100%
------------------------------------------------------------
Processing file: [02. Come-on-Bert.wav]
------------------------------------------------------------
This track looks like CDDA with probability 100%
------------------------------------------------------------
Processing file: [03. Gondsi Mitenand.wav]
------------------------------------------------------------
This track looks like CDDA with probability 100%
------------------------------------------------------------
Processing file: [04. Conn-Conn.wav]
------------------------------------------------------------
This track looks like CDDA with probability 100%
------------------------------------------------------------
Processing file: [05. Tuned Boots.wav]
------------------------------------------------------------
This track looks like CDDA with probability 99%
------------------------------------------------------------
Final Conclusion:
------------------------------------------------------------
These tracks looks like CDDA with probability 100%
Доп. информация:
 
Album Info
Recording Dates: Tracks 1 & 2 on 19 May 1975 during the New Jazz Festival, Moers
Tracks 3 & 4 on 11 December 1975 at FMP-Studio, Berlin
Track 5 on 17 November 1977 during the Steirischer Herbst, Graz, Austria
 
Состав
Alto Saxophone, Tenor Saxophone, Clarinet, Piccolo Flute – Rüdiger Carl
Drums – Louis Moholo
Piano – Irène Schweizer
По всем вопросам пишите личное сообщение пользователю M0p94ok.
01:34
194
Нет комментариев. Ваш будет первым!