Вы используете незарегистрированную версию компонента "Вкладки"!

Поиск

(Avant-Garde Jazz, Free Improvisation) [CD] Rodrigo Amado, Carlos Zingaro, Ken Filiano - The Space Between - 2003, FLAC (image+.cue), lossless

(Avant-Garde Jazz, Free Improvisation) [CD] Rodrigo Amado, Carlos Zingaro, Ken Filiano - The Space Between - 2003, FLAC (image+.cue), lossless
Треклист:
Rodrigo Amado, Carlos Zingaro, Ken Filiano / The Space Between
Жанр: Avant-Garde Jazz, Free Improvisation
Носитель: CD
Страна-производитель диска: Portugal
Год издания: 2003
Издатель (лейбл): Clean Feed
Номер по каталогу: CF015CD
Аудиокодек: FLAC (*.flac)
Тип рипа: image+.cue
Битрейт аудио: lossless
Продолжительность: 54:50
Источник (релизер): CD
Наличие сканов в содержимом раздачи: нет
Треклист:
1 Nothing / New Thing 4:06
2 The Space Between 6:01
3 Meters 7:09
4 Around The House 6:50
5 Off Breaker 5:05
6 Tripplets 6:37
7 Shadow Lines 7:27
8 Horn, Strins & Sound 6:18
9 In We Walked Out 5:14
 
Лог создания рипа
Exact Audio Copy V1.0 beta 2 from 29. April 2011
EAC extraction logfile from 28. April 2014, 11:33
Rodrigo Amado, Carlos Zingaro, Ken Filiano / The Space Between
Used drive : Optiarc DVD RW AD-7170A Adapter: 0 ID: 0
Read mode : Secure
Utilize accurate stream : Yes
Defeat audio cache : Yes
Make use of C2 pointers : No
Read offset correction : 48
Overread into Lead-In and Lead-Out : No
Fill up missing offset samples with silence : Yes
Delete leading and trailing silent blocks : No
Null samples used in CRC calculations : Yes
Used interface : Native Win32 interface for Win NT & 2000
Used output format : User Defined Encoder
Selected bitrate : 320 kBit/s
Quality : High
Add ID3 tag : No
Command line compressor : C:\Program Files\Exact Audio Copy\Flac\flac.exe
Additional command line options : -V -8 -T "Date=%year%" -T "Genre=%genre%" %source%
TOC of the extracted CD
Track | Start | Length | Start sector | End sector
---------------------------------------------------------
1 | 0:00.00 | 4:06.35 | 0 | 18484
2 | 4:06.35 | 6:01.55 | 18485 | 45614
3 | 10:08.15 | 7:09.03 | 45615 | 77792
4 | 17:17.18 | 6:49.72 | 77793 | 108539
5 | 24:07.15 | 5:05.32 | 108540 | 131446
6 | 29:12.47 | 6:37.25 | 131447 | 161246
7 | 35:49.72 | 7:27.01 | 161247 | 194772
8 | 43:16.73 | 6:19.03 | 194773 | 223200
9 | 49:36.01 | 5:14.11 | 223201 | 246761
Range status and errors
Selected range
Filename K:\ЕАС\Rodrigo Amado, Carlos Zingaro, Ken Filiano - The Space Between.wav
Peak level 100.0 %
Extraction speed 1.9 X
Range quality 100.0 %
Test CRC 0BD45264
Copy CRC 0BD45264
Copy OK
No errors occurred
AccurateRip summary
Track 1 cannot be verified as accurate (confidence 1) [C01999B8], AccurateRip returned [51B5F873] (AR v2)
Track 2 cannot be verified as accurate (confidence 1) [2CAD92FA], AccurateRip returned [DA51E90D] (AR v2)
Track 3 cannot be verified as accurate (confidence 1) [0DB1F8D1], AccurateRip returned [0271B6C3] (AR v2)
Track 4 cannot be verified as accurate (confidence 1) [304C431E], AccurateRip returned [C18F7044] (AR v2)
Track 5 cannot be verified as accurate (confidence 1) [1B00FA37], AccurateRip returned [E4296F94] (AR v2)
Track 6 cannot be verified as accurate (confidence 1) [29739676], AccurateRip returned [6C2BEE94] (AR v2)
Track 7 cannot be verified as accurate (confidence 1) [7EAB7DF2], AccurateRip returned [68DF1F1C] (AR v2)
Track 8 cannot be verified as accurate (confidence 1) [499AAD9F], AccurateRip returned [63DCA4DD] (AR v2)
Track 9 cannot be verified as accurate (confidence 1) [11E312BF], AccurateRip returned [7C68C211] (AR v2)
No tracks could be verified as accurate
You may have a different pressing from the one(s) in the database
End of status report
==== Log checksum 983106E18728379196D446945220C6DCDFE9FFF004622CCB6BA9608A8EFA819B ====
 
Содержание индексной карты (.CUE)
REM GENRE Avantgarde
REM DATE 2003
REM DISCID 820CDA09
REM COMMENT "ExactAudioCopy v1.0b2"
PERFORMER "Rodrigo Amado, Carlos Zingaro, Ken Filiano"
TITLE "The Space Between"
FILE "Rodrigo Amado, Carlos Zingaro, Ken Filiano - The Space Between.flac" WAVE
TRACK 01 AUDIO
TITLE "Nothing - New Thing"
PERFORMER "Rodrigo Amado, Carlos Zingaro, Ken Filiano"
ISRC 000000000000
INDEX 01 00:00:00
TRACK 02 AUDIO
TITLE "The Space Between"
PERFORMER "Rodrigo Amado, Carlos Zingaro, Ken Filiano"
ISRC 000000000000
INDEX 01 04:06:35
TRACK 03 AUDIO
TITLE "Meters"
PERFORMER "Rodrigo Amado, Carlos Zingaro, Ken Filiano"
ISRC 000000000000
INDEX 01 10:08:15
TRACK 04 AUDIO
TITLE "Around the House"
PERFORMER "Rodrigo Amado, Carlos Zingaro, Ken Filiano"
ISRC 000000000000
INDEX 01 17:17:18
TRACK 05 AUDIO
TITLE "Off Breaker"
PERFORMER "Rodrigo Amado, Carlos Zingaro, Ken Filiano"
ISRC 000000000000
INDEX 01 24:07:15
TRACK 06 AUDIO
TITLE "Tripplets"
PERFORMER "Rodrigo Amado, Carlos Zingaro, Ken Filiano"
ISRC 000000000000
INDEX 01 29:12:47
TRACK 07 AUDIO
TITLE "Shadow Lines"
PERFORMER "Rodrigo Amado, Carlos Zingaro, Ken Filiano"
ISRC 000000000000
INDEX 01 35:49:72
TRACK 08 AUDIO
TITLE "Horn, Strings & Sound"
PERFORMER "Rodrigo Amado, Carlos Zingaro, Ken Filiano"
ISRC 000000000000
INDEX 01 43:16:73
TRACK 09 AUDIO
TITLE "In We Walked Out"
PERFORMER "Rodrigo Amado, Carlos Zingaro, Ken Filiano"
ISRC 000000000000
INDEX 01 49:36:01
 
Об исполнителе (группе)
Rodrigo Amado was born in 1964 and started studying saxophone when he was 17. Although he played in various musical contexts he has devoted his musical career to improvisation.
He leads his own collective – Lisbon Improvisation Players – with whom he recorded “Live_Lx Meskla” (Clean Feed). L.I.P. also recorded a quartet date, due to be released this year, with Steve Adams (Rova), Ken Filiano and Acácio Salero. He has played with musicians like Steve Swell, Lou Grassi, Mark Whitecage, Dominic Duval, Peter Epstein, Nuno Rebelo, Rafael Toral or Manuel Mota. He has played the Gulbenkian “Jazz em Agosto” Festival, in Lisbon,and this trio will play at the “Jazz ao Centro” concert series, in Coimbra. Next November he will play at the Atlantic Waves Festival in a concert associated with the London Jazz Festival. His quartet will feature british sax player Paul Dunmall.
Carlos Zíngaro born in 1948, is one of the best known european jazz improvisors. Beeing a classically trained musician he is considered a master in his instrument. He has played with hundreds of musicians throughout the world; Barre Phillips, Derek Bailey, Daunik Lazro, Joelle Leandre, Kent Carter, Ned Rothenberg, Peter Kowald, Roger Turner, Rudiger Carl, Evan Parker, Gunter Muller, Paul Lovens. In 1979 he won the Fulbright Grant and was invited to lecture in the Creative Music Foundation in Woodstock, NY, with Anthony Braxton, George Lewis, Roscoe Mitchell, Leo Smith, Tom Cora and Richard Teitelbaum.
Ken Filiano is a bass player that connects deeply with the jazz tradition and, at the same time, transmits an urgent sense of modernity in all his playing. He records and plays with musicians from the most diverse musical areas; John Carter, Bobby Bradford, Warne Marsh, Barre Phillips, Alex Cline, Rob Blakeslee, Joelle Leandre, Paul Smoker, Frank Strazzeri, Bill Perkins, Richard Grossman, Roswell Rudd, Vinny Golia, Steve Adams, and countless others. He records usually for the CIMP, Cadence and Nine Winds labels, having recorded a solo CD “Subvenire” in this last one. He plays intensely in the United States, Europe, Canada and South America, having played the most prestigious festivals around the world. He is, without a doubt, one of the most talented and creative bass players of our time.
 
Об альбоме (сборнике)
In the summer of 2002, Amado, Zíngaro and Filiano met in a Lisbon studio to record what was to be “The Space Between”, a collection of tunes based on the principles of real-time composition. For portuguese players Amado and Zíngaro it was, strangely, only the second time they played together. As to Filiano, he just met Zíngaro in this session. He knew Amado from recording “The implicate Order – At Seixal”, together with Steve Swell, Lou Grassi and another portuguese player, Paulo Curado. From then on, Amado and Filiano played together on several occasions.
The day was extremely hot, but the old studio was immersed in a pleasant temperature. As they played through the night the only light that one could see in the big recording room was an old secretary lamp turned upside down, drawing a circular spot on the ceiling. The music they played was totally focused on instinct communication between the three, trying at the same time to develop distinctive tunes with a clear shape and structure. The three musicians were standing freely in the center of the room, allowing for the sound of the instruments to create distinct resonances between themselves.
Saxophonist Rodrigo Amado got this trio together with the idea of taking further the concept he had been working for years – real-time composition. For this he couldn’t get better partner musicians. Violin master Carlos Zíngaro is a world renowed improvisor and double-bass virtuoso Ken Filiano is a player with a unique approach that blends together elements of jazz, classical and contemporary playing.
 
Состав
Double Bass – Ken Filiano
Saxophone – Rodrigo Amado
Violin – Carlos Zíngaro
По всем вопросам пишите личное сообщение пользователю M0p94ok.
01:38
170
Нет комментариев. Ваш будет первым!