Вы используете незарегистрированную версию компонента "Вкладки"!

Поиск

(Contemporary Jazz, M-Base) [CD] Strata Institute (Steve Coleman, Von Freeman, Greg Osby...) - Transmigration - 1991, FLAC (image+.cue), lossless

(Contemporary Jazz, M-Base) [CD] Strata Institute (Steve Coleman, Von Freeman, Greg Osby...) - Transmigration - 1991, FLAC (image+.cue), lossless
Треклист:
Strata Institute / Transmigration
Жанр: Contemporary Jazz
Носитель: CD
Страна-производитель диска: Japan
Год издания: 1991
Издатель (лейбл): DIW
Номер по каталогу: DIW-860
Страна: USA
Аудиокодек: FLAC (*.flac)
Тип рипа: image+.cue
Битрейт аудио: lossless
Продолжительность: 01:08:49
Источник (релизер): собственный рип
Наличие сканов в содержимом раздачи: да
Треклист:
01 3 Against 2
02 Mr. Lucky
03 Speake
04 Knowledge Of Cult
05 If You Could See Me Now
06 Minor Step
07 Kahn
08 Jimdog
09 It's You
10 Thebes
 
Лог создания рипа
Exact Audio Copy V1.0 beta 3 from 29. August 2011
EAC extraction logfile from 29. April 2014, 16:15
Strata Institute / Transmigration
Used drive : Optiarc DVD RW AD-7710H Adapter: 0 ID: 1
Read mode : Secure
Utilize accurate stream : Yes
Defeat audio cache : Yes
Make use of C2 pointers : No
Read offset correction : 48
Overread into Lead-In and Lead-Out : No
Fill up missing offset samples with silence : Yes
Delete leading and trailing silent blocks : No
Null samples used in CRC calculations : Yes
Used interface : Installed external ASPI interface
Used output format : User Defined Encoder
Selected bitrate : 896 kBit/s
Quality : High
Add ID3 tag : No
Command line compressor : C:\Program Files (x86)\Exact Audio Copy\FLAC\FLAC.EXE
Additional command line options : -6 -V -T "ARTIST=%artist%" -T "TITLE=%title%" -T "ALBUM=%albumtitle%" -T "DATE=%year%" -T "TRACKNUMBER=%tracknr%" -T "GENRE=%genre%" -T "COMMENT=%comment%" -T "BAND=%albuminterpret%" -T "ALBUMARTIST=%albuminterpret%" -T "COMPOSER=%composer%" %haslyrics%--tag-from-file=LYRICS="%lyricsfile%"%haslyrics% -T "DISCNUMBER=%cdnumber%" -T "TOTALDISCS=%totalcds%" -T "TOTALTRACKS=%numtracks%" %hascover%--picture="%coverfile%"%hascover% %source% -o %dest%
TOC of the extracted CD
Track | Start | Length | Start sector | End sector
---------------------------------------------------------
1 | 0:00.00 | 5:44.57 | 0 | 25856
2 | 5:44.57 | 9:42.15 | 25857 | 69521
3 | 15:26.72 | 7:58.18 | 69522 | 105389
4 | 23:25.15 | 4:39.35 | 105390 | 126349
5 | 28:04.50 | 6:06.22 | 126350 | 153821
6 | 34:10.72 | 10:30.15 | 153822 | 201086
7 | 44:41.12 | 6:03.20 | 201087 | 228331
8 | 50:44.32 | 5:06.18 | 228332 | 251299
9 | 55:50.50 | 6:36.05 | 251300 | 281004
10 | 62:26.55 | 6:22.40 | 281005 | 309694
Range status and errors
Selected range
Filename D:\loosless\Strata Institute - Transmigration.wav
Peak level 99.4 %
Extraction speed 5.3 X
Range quality 100.0 %
Copy CRC BF929C84
Copy OK
No errors occurred
End of status report
==== Log checksum A8C122EDFC7A6E46063BF38948AC26DC204F0AA776FBB92FF4DCE381FEC2213D ====
 
Audiochecker log
AUDIOCHECKER v2.0 beta (build 457) - by Dester - opdester@freemail.hu
~~~~~~~~~~~~~~~~~~~~~~~~~~~~~~~~~~
Started at: Tue, 29. 04. 2014. - 16:58.50
1 file found
1 -===- D:\[trs]\Strata Institute 1991 Trasmigration\Strata Institute - Transmigration.flac
Extracted successfully
Conclusion: this track is CDDA with probability 100%
Tempfile successfully deleted.
Finished at: Tue, 29. 04. 2014. - 17:04.55 (operation time: 0:06.04)
 
Состав
Von Freeman - tenor sax
Steve Coleman - alto sax
Greg Osby - alto sax
David Gilmore - guitar
Kenny Davis - acoustic bass
Marvin Smith - drums
По всем вопросам пишите личное сообщение пользователю M0p94ok.
01:39
190
Нет комментариев. Ваш будет первым!