Вы используете незарегистрированную версию компонента "Вкладки"!

Поиск

(Avant-Garde Jazz, Free Improvisation) [CD] ICP Orchestra (Mengelberg, Glerum, Honsinger, Baars, Moore, Bennink, Delius, Wierbos, Heberer, Oliver) - Aan & Uit - 2004, FLAC (image+.cue), lossless

(Avant-Garde Jazz, Free Improvisation) [CD] ICP Orchestra (Mengelberg, Glerum, Honsinger, Baars, Moore, Bennink, Delius, Wierbos, Heberer, Oliver) - Aan & Uit - 2004, FLAC (image+.cue), lossless
Треклист:
ICP Orchestra / Aan & Uit
Жанр: Avant-Garde Jazz, Free Improvisation
Носитель: CD
Страна-производитель диска: Netherlands
Год издания: 2004
Издатель (лейбл): Instant Composers Pool
Номер по каталогу: ICP 042
Аудиокодек: FLAC (*.flac)
Тип рипа: image+.cue
Битрейт аудио: lossless
Продолжительность: 70:09
Источник (релизер): CD
Наличие сканов в содержимом раздачи: нет
Треклист:
1 Aan & Uit 0:21
2 De Sprong, O Romantiek Der Hazen 5:21
Picnic:
3 A Beautiful Day 3:50
4 Let's Go To The River 1:24
5 And Have a Picnic 3:04
6 Play Some Badminton 2:39
7 Let's Go Home Before 5:24
8 The Sparrows Start Waving Their Pyjamas 6:45
9 Tijd Voor De Quadrille 1:50
10 Barbaric 4:26
11 Back To Lippiza 3:06
12 Va-et-vient 5:23
13 Ever Never 3:52
14 Waar Bleef Je? 3:32
15 Tuinhek 5:42
16 Opa 3:31
17 Let's Climb A Hill 8:54
18 Aan & Uit 0:19
 
Лог создания рипа
Exact Audio Copy V1.0 beta 2 from 29. April 2011
EAC extraction logfile from 29. April 2014, 11:35
ICP Orchestra / Aan & Uit
Used drive : Optiarc DVD RW AD-7170A Adapter: 0 ID: 0
Read mode : Secure
Utilize accurate stream : Yes
Defeat audio cache : Yes
Make use of C2 pointers : No
Read offset correction : 48
Overread into Lead-In and Lead-Out : No
Fill up missing offset samples with silence : Yes
Delete leading and trailing silent blocks : No
Null samples used in CRC calculations : Yes
Used interface : Native Win32 interface for Win NT & 2000
Used output format : User Defined Encoder
Selected bitrate : 320 kBit/s
Quality : High
Add ID3 tag : No
Command line compressor : C:\Program Files\Exact Audio Copy\Flac\flac.exe
Additional command line options : -V -8 -T "Date=%year%" -T "Genre=%genre%" %source%
TOC of the extracted CD
Track | Start | Length | Start sector | End sector
---------------------------------------------------------
1 | 0:00.00 | 0:21.30 | 0 | 1604
2 | 0:21.30 | 5:26.33 | 1605 | 26087
3 | 5:47.63 | 3:50.36 | 26088 | 43373
4 | 9:38.24 | 1:23.56 | 43374 | 49654
5 | 11:02.05 | 3:03.65 | 49655 | 63444
6 | 14:05.70 | 2:39.45 | 63445 | 75414
7 | 16:45.40 | 5:23.59 | 75415 | 99698
8 | 22:09.24 | 6:50.00 | 99699 | 130448
9 | 28:59.24 | 1:55.40 | 130449 | 139113
10 | 30:54.64 | 4:29.28 | 139114 | 159316
11 | 35:24.17 | 3:11.34 | 159317 | 173675
12 | 38:35.51 | 5:30.11 | 173676 | 198436
13 | 44:05.62 | 3:55.70 | 198437 | 216131
14 | 48:01.57 | 3:37.67 | 216132 | 232473
15 | 51:39.49 | 5:42.36 | 232474 | 258159
16 | 57:22.10 | 3:31.39 | 258160 | 274023
17 | 60:53.49 | 8:57.32 | 274024 | 314330
18 | 69:51.06 | 0:18.59 | 314331 | 315739
Range status and errors
Selected range
Filename K:\ЕАС\ICP Orchestra - Aan & Uit.wav
Peak level 100.0 %
Extraction speed 2.1 X
Range quality 100.0 %
Test CRC 8A4D3809
Copy CRC 8A4D3809
Copy OK
No errors occurred
AccurateRip summary
Track 1 accurately ripped (confidence 2) [E7B42B7C] (AR v2)
Track 2 accurately ripped (confidence 2) [D0203ADE] (AR v2)
Track 3 accurately ripped (confidence 2) [79AD3481] (AR v2)
Track 4 accurately ripped (confidence 2) [2C3AAA5D] (AR v2)
Track 5 accurately ripped (confidence 2) [24F9396D] (AR v2)
Track 6 accurately ripped (confidence 2) [514D7467] (AR v2)
Track 7 accurately ripped (confidence 2) [C1BA830B] (AR v2)
Track 8 accurately ripped (confidence 2) [65C28F1B] (AR v2)
Track 9 accurately ripped (confidence 2) [A544514C] (AR v2)
Track 10 accurately ripped (confidence 2) [F723EFA1] (AR v2)
Track 11 accurately ripped (confidence 2) [463DB24A] (AR v2)
Track 12 accurately ripped (confidence 2) [57B18592] (AR v2)
Track 13 accurately ripped (confidence 2) [F313A29B] (AR v2)
Track 14 accurately ripped (confidence 2) [F111631C] (AR v2)
Track 15 accurately ripped (confidence 2) [736B923F] (AR v2)
Track 16 accurately ripped (confidence 2) [FC55D882] (AR v2)
Track 17 accurately ripped (confidence 2) [6DA67036] (AR v2)
Track 18 accurately ripped (confidence 2) [D7F83213] (AR v2)
All tracks accurately ripped
End of status report
==== Log checksum 00E219E7CB9D56574D6986E50301EF9B91D640C7D14B7B1BED26059BE991DDB3 ====
 
Содержание индексной карты (.CUE)
REM GENRE Avantgarde
REM DATE 2004
REM DISCID F0107112
REM COMMENT "ExactAudioCopy v1.0b2"
PERFORMER "ICP Orchestra"
TITLE "Aan & Uit"
FILE "ICP Orchestra - Aan & Uit.flac" WAVE
TRACK 01 AUDIO
TITLE "Aan & Uit"
PERFORMER "ICP Orchestra"
ISRC NLB980404201
INDEX 01 00:00:00
TRACK 02 AUDIO
TITLE "De Sprong O Romentiek der Hazen"
PERFORMER "ICP Orchestra"
ISRC NLB980404202
INDEX 01 00:21:30
TRACK 03 AUDIO
TITLE "A beautiful day"
PERFORMER "ICP Orchestra"
ISRC NLB980404203
INDEX 00 05:42:63
INDEX 01 05:47:63
TRACK 04 AUDIO
TITLE "Let's go to the river"
PERFORMER "ICP Orchestra"
ISRC NLB980404204
INDEX 01 09:38:24
TRACK 05 AUDIO
TITLE "And have a Picnic"
PERFORMER "ICP Orchestra"
ISRC NLB980404205
INDEX 01 11:02:05
TRACK 06 AUDIO
TITLE "Play some badminton"
PERFORMER "ICP Orchestra"
ISRC NLB980404206
INDEX 01 14:05:70
TRACK 07 AUDIO
TITLE "Let's go home before"
PERFORMER "ICP Orchestra"
ISRC NLB980404207
INDEX 01 16:45:40
TRACK 08 AUDIO
TITLE "The sparrows start waving their pyjamas"
PERFORMER "ICP Orchestra"
ISRC NLB980404208
INDEX 01 22:09:24
TRACK 09 AUDIO
TITLE "Tijd voor de Quadrille"
PERFORMER "ICP Orchestra"
ISRC NLB980404209
INDEX 00 28:54:24
INDEX 01 28:59:24
TRACK 10 AUDIO
TITLE "Barbaric"
PERFORMER "ICP Orchestra"
ISRC NLB980404210
INDEX 00 30:49:64
INDEX 01 30:54:64
TRACK 11 AUDIO
TITLE "Back to Lippiza"
PERFORMER "ICP Orchestra"
ISRC NLB980404211
INDEX 00 35:21:17
INDEX 01 35:24:17
TRACK 12 AUDIO
TITLE "Va-et-vient"
PERFORMER "ICP Orchestra"
ISRC NLB980404212
INDEX 00 38:30:51
INDEX 01 38:35:51
TRACK 13 AUDIO
TITLE "Ever never"
PERFORMER "ICP Orchestra"
ISRC NLB980404213
INDEX 00 43:58:62
INDEX 01 44:05:62
TRACK 14 AUDIO
TITLE "Waar bleef je?"
PERFORMER "ICP Orchestra"
ISRC NLB980404214
INDEX 00 47:57:57
INDEX 01 48:01:57
TRACK 15 AUDIO
TITLE "Tuinhek"
PERFORMER "ICP Orchestra"
ISRC NLB980404215
INDEX 00 51:33:49
INDEX 01 51:39:49
TRACK 16 AUDIO
TITLE "Opa"
PERFORMER "ICP Orchestra"
ISRC NLB980404216
INDEX 01 57:22:10
TRACK 17 AUDIO
TITLE "Let's climb a hill"
PERFORMER "ICP Orchestra"
ISRC NLB980404217
INDEX 01 60:53:49
TRACK 18 AUDIO
TITLE "Aan & Uit"
PERFORMER "ICP Orchestra"
ISRC NLB980404218
INDEX 00 69:48:06
INDEX 01 69:51:06
Доп. информация: Recorded on 26/27 November and 13 December 2003 at the BIMhuis, Amsterdam
 
Об альбоме (сборнике)
Those fortunate to have witnessed a performance by pianist Misha Mengelberg's ICP Orchestra on a night when their beautifully ramshackle conception comes together and pulls apart in perfect disharmony know there is no finer live jazz outfit on the planet. The experience at its best involves all the senses -- not just the ears -- as unpredictable set lists and improvisations draw from the languages of swing, bop, free jazz, and classical music. Scores are shuffled around on music stands; hand signals trigger unexpected escapades by the entire band, various subunits, or soloists; bandmembers wander on- and off-stage. How to capture such a thing in recorded form? While ICP albums such as Bospaadje Konijnehol I and II, Jubilee Varia, and Oh, My Dog have much to recommend them and belong in the collection of any forward-thinking jazz listener, they are no match for the living, breathing ensemble spread out on a stage in real time. Pieced together from three nights of recording at Amsterdam's BIMhuis in late 2003 and released in 2004 on the ICP label, Aan & Uit (On & Off) can't compare to "being there" either, but it is also one of the ensemble's most wonderfully diverting, entertaining, and even beautiful albums. Regardless of whether you have been to an ICP show, the consistently high-caliber musicianship and the integration of sometimes astoundingly diverse musical forms make this quite well suited for experiencing through the necessarily limited medium of a compact disc.
Mengelberg's multi-track "Picnic" moves unpredictably yet effortlessly through its various episodes and dialogues incorporating elements of free jazz, structured improvisation, brass band, chamber music, and finally hepcat swing; the perception of flow and momentum is assisted by the linked titles within the suite, which taken together read "A beautiful day...Let's go the river...And have a Picnic...Play some badminton...Let's go home before...The sparrows start waving their pyjamas." Meanwhile, Thomas Heberer's swinging polystylistic "Let's Climb a Hill," which appears later in the disc and features a hot trumpet solo from the composer, suggests a return to the "Picnic" and serves as a further unifying statement. The resolution-free "Aan & Uit" chamber music intro and outro nicely bookend the disc; these are the types of appealing Mengelberg miniatures that can get lost (as in "Een Gewelfde Rugleuning" [A Curved Backrest] in his "De Purperen Sofa" [The Purple Sofa] suite on Bospaadje Konijnehol I) when buried deeply between mad free-blowing segments. On a piece like "Opa," with a subdued "Taps"-like trumpet call sounded over extended phased notes from reeds and strings, Mengelberg -- not just a crazy jazz cat on the lookout for peculiar juxtapositions -- moves into compositional territory similar to that of an early collaborator who has taken a decidedly different path, Louis Andriessen. The delicately measured and then jaunty "Tijd Voor de Quadrille" might even have some listeners thinking of Michael Nyman's modern neo-classicist approaches to soundtrack music such as Peter Greenaway's The Draughtsman's Contract -- which also suggests further comparison to Greenaway score composer Andriessen (proposed new soundtrack title: M Is for Man, Music, Mengelberg). Even "Va-et-Vient" -- a reeds-and-strings trio improvisation involving Ab Baars, Mary Oliver, and Tobias Delius -- sometimes tips toward classical stylings and techniques, although a screaming, overblown free jazz crescendo liable to shatter your windows appears toward the conclusion. This is still an ICP disc, after all, and as such is a jazz record poised to leap from the comfort zone, careening from the classical to the avant jazz end of the listening spectrum, and sometimes even holding these elements in precarious balance simultaneously.
First-time jazz listeners (better late than never) might find tracks like "The Sparrows...," "Let's Climb a Hill," Tristan Honsinger's "Ever Never" (an exuberant free-for-all capturing some of the flavor of kweli-inspired compositions penned by Mengelberg or Gerry Hemingway), and Hoagy Carmichael's "Barbaric" to be the most immediately appealing; they might also conclude that the infantile Dadaist babbling (courtesy of Mengelberg) and piano/drums explosions (courtesy of Mengelberg and Han Bennink) are rude intrusions into the otherwise slow and gentle dance band swing of "De Sprong, O Romantiek der Hazen." But the good news here is that the ICP Orchestra have retained the lively absurdism and unbridled expressionism so integral to their identity. And more good news is that the ICP have released a CD that should be immensely enjoyable even to the uninitiated, not just dazzled members of the band's concert audience seeking souvenirs after the ICP multi-sensory circus has rolled through town and left more conventional jazz groups in the dust.
 
Состав
Bass – Ernst Glerum
Cello – Tristan Honsinger
Clarinet, Saxophone – Ab Baars, Michael Moore
Drums – Han Bennink
Piano – Misha Mengelberg
Tenor Saxophone – Tobias Delius
Trombone – Wolter Wierbos
Trumpet – Thomas Heberer
Violin, Viola – Mary Oliver
По всем вопросам пишите личное сообщение пользователю M0p94ok.
01:39
170
Нет комментариев. Ваш будет первым!