Вы используете незарегистрированную версию компонента "Вкладки"!

Поиск

(free jazz) [CD] Sea Ensemble (Zusaan Kali Fasteau, Donald Rafael Garrett ) - We Move Together 1974, FLAC (tracks+.cue), lossless

Треклист:


Sea Ensemble - We Move Together 1974

Жанр:free jazz
Год выпуска: 1974
Издатель (лейбл):ESP
Формат: FLAC (tracks+.cue)
Битрейт аудио: lossless
Продолжительность 38`57
Источник: nnm, mishka1981
Zusaan Kali Fasteau (cello, p, d, vo, shakuhachi, nye)
Donald Rafael Garrett (sheng, cl, b, d, shakuhachi, vo)

tracks

1. Ride Tiger To Mountain
2. Wave Hands Like Clouds
3. Snake Creeps Down
4. Needle Of Sea Bottom
5. Stork Cools Its Wings


 
.log
Exact Audio Copy V1.0 beta 1 from 15. November 2010
EAC extraction logfile from 24. December 2013, 13:15
Sea Ensemble / We Move Together
Used drive : TSSTcorpCDDVDW TS-L633A Adapter: 3 ID: 0
Read mode : Secure
Utilize accurate stream : Yes
Defeat audio cache : Yes
Make use of C2 pointers : No
Read offset correction : 6
Overread into Lead-In and Lead-Out : No
Fill up missing offset samples with silence : Yes
Delete leading and trailing silent blocks : No
Null samples used in CRC calculations : Yes
Used interface : Installed external ASPI interface
Gap handling : Appended to previous track
Used output format : User Defined Encoder
Selected bitrate : 896 kBit/s
Quality : High
Add ID3 tag : No
Command line compressor : C:\Program Files\Exact Audio Copy\FLAC\FLAC.EXE
Additional command line options : -8 -V -T "ARTIST=%a" -T "TITLE=%t" -T "ALBUM=%g" -T "DATE=%y" -T "TRACKNUMBER=%n" -T "TOTALTRACKS=%x" -T "GENRE=%m" -T "ALBUMARTIST=%v" -T "ALBUM ARTIST=%v" -T "COMMENT=EAC Secure Mode, Test & Copy, AccurateRip, FLAC -8" %s
TOC of the extracted CD
Track | Start | Length | Start sector | End sector
---------------------------------------------------------
1 | 0:00.00 | 1:38.62 | 0 | 7411
2 | 1:38.62 | 6:13.35 | 7412 | 35421
3 | 7:52.22 | 3:51.32 | 35422 | 52778
4 | 11:43.54 | 7:14.65 | 52779 | 85393
5 | 18:58.44 | 19:58.60 | 85394 | 175303
Track 1
Filename C:\MY RIPS\01 - Ride Riger to Mountain.wav
Pre-gap length 0:00:02.00
Peak level 92.2 %
Extraction speed 0.8 X
Track quality 100.0 %
Test CRC E5C856A7
Copy CRC E5C856A7
Track not present in AccurateRip database
Copy OK
Track 2
Filename C:\MY RIPS\02 - Wave Hands Like Clouds.wav
Peak level 71.7 %
Extraction speed 1.2 X
Track quality 100.0 %
Test CRC D5E3210B
Copy CRC D5E3210B
Track not present in AccurateRip database
Copy OK
Track 3
Filename C:\MY RIPS\03 - Snake Creeps Down.wav
Peak level 79.2 %
Extraction speed 1.0 X
Track quality 99.9 %
Test CRC 6045F88D
Copy CRC 6045F88D
Track not present in AccurateRip database
Copy OK
Track 4
Filename C:\MY RIPS\04 - Needle of Sea Bottom.wav
Peak level 79.1 %
Extraction speed 1.4 X
Track quality 100.0 %
Test CRC B8C82729
Copy CRC B8C82729
Track not present in AccurateRip database
Copy OK
Track 5
Filename C:\MY RIPS\05 - Stork Cools Its Wings.wav
Peak level 95.8 %
Extraction speed 1.8 X
Track quality 100.0 %
Test CRC A0B3BCB3
Copy CRC A0B3BCB3
Track not present in AccurateRip database
Copy OK
None of the tracks are present in the AccurateRip database
No errors occurred
End of status report
==== Log checksum 1DAF44420042EF65CD74DF724C286E3F6FA6E3951B35099C83633C93F7B25586 ====
 
.cue
REM GENRE Jazz
REM DISCID 24092105
REM COMMENT "ExactAudioCopy v1.0b1"
PERFORMER "Sea Ensemble"
TITLE "We Move Together"
FILE "01 - Ride Riger to Mountain.wav" WAVE
TRACK 01 AUDIO
TITLE "Ride Riger to Mountain"
PERFORMER "Sea Ensemble"
INDEX 01 00:00:00
FILE "02 - Wave Hands Like Clouds.wav" WAVE
TRACK 02 AUDIO
TITLE "Wave Hands Like Clouds"
PERFORMER "Sea Ensemble"
INDEX 01 00:00:00
FILE "03 - Snake Creeps Down.wav" WAVE
TRACK 03 AUDIO
TITLE "Snake Creeps Down"
PERFORMER "Sea Ensemble"
INDEX 01 00:00:00
FILE "04 - Needle of Sea Bottom.wav" WAVE
TRACK 04 AUDIO
TITLE "Needle of Sea Bottom"
PERFORMER "Sea Ensemble"
INDEX 01 00:00:00
FILE "05 - Stork Cools Its Wings.wav" WAVE
TRACK 05 AUDIO
TITLE "Stork Cools Its Wings"
PERFORMER "Sea Ensemble"
INDEX 01 00:00:00

другие релизы
По всем вопросам пишите личное сообщение пользователю M0p94ok.
21:48
114
Нет комментариев. Ваш будет первым!