Вы используете незарегистрированную версию компонента "Вкладки"!

Поиск

(Avant-Garde, Free Improvisation, Plainisphare) [CD] KuttelDaddelDu (Urs Bloechlinger, Jacques Demierre, Olivier Magnenat) - Live in Lausanne - 1991, FLAC (tracks+.cue), lossless

(Avant-Garde, Free Improvisation, Plainisphare) [CD] KuttelDaddelDu (Urs Bloechlinger, Jacques Demierre, Olivier Magnenat) - Live in Lausanne - 1991, FLAC (tracks+.cue), lossless
Треклист:
KuttelDaddelDu / Live in Lausanne
Жанр: Avant-Garde, Free Improvisation
Носитель: CD
Страна-производитель диска: Switzerland
Год издания: 1991
Издатель (лейбл): Plainisphare
Номер по каталогу: PL 1267-61 CD
Аудиокодек: FLAC (*.flac)
Тип рипа: tracks+.cue
Битрейт аудио: lossless
Продолжительность: 45:59
Источник (релизер):
Наличие сканов в содержимом раздачи: нет
Треклист:
1. Les Vieux Chapeaux 8:48
2. L’Amour – Die Mauer 13:57
3. Kännsch Höngg? 12:18
4. Who Is Afraid of Alain Monnier? 10:56
All compositions by Urs Blöchlinger.
Recorded live in Lausanne, Switzerland, January 1990.
Olivier Magnenat – Bass
Urs Blöchlinger – Alto Sax
Jacques Demierre – Piano
 
Лог создания рипа
Exact Audio Copy V1.0 beta 3 from 29. August 2011
EAC extraction logfile from 21. December 2013, 14:09
KuttelDaddelDu / Live in Lausanne
Used drive : hp BD E DS6E2LH Adapter: 0 ID: 1
Read mode : Secure
Utilize accurate stream : Yes
Defeat audio cache : Yes
Make use of C2 pointers : No
Read offset correction : 6
Overread into Lead-In and Lead-Out : No
Fill up missing offset samples with silence : Yes
Delete leading and trailing silent blocks : No
Null samples used in CRC calculations : Yes
Used interface : Native Win32 interface for Win NT & 2000
Gap handling : Appended to previous track
Used output format : User Defined Encoder
Selected bitrate : 768 kBit/s
Quality : High
Add ID3 tag : No
Command line compressor : C:\Program Files (x86)\Exact Audio Copy\Flac\flac.exe
Additional command line options : -8 -V -T "ARTIST=%artist%" -T "TITLE=%title%" -T "ALBUM=%albumtitle%" -T "DATE=%year%" -T "TRACKNUMBER=%tracknr%" -T "GENRE=%genre%" -T "PERFORMER=%albuminterpret%" -T "COMPOSER=%composer%" %haslyrics%--tag-from-file=LYRICS="%lyricsfile%"%haslyrics% -T "ALBUMARTIST=%albumartist%" -T "DISCNUMBER=%cdnumber%" -T "TOTALDISCS=%totalcds%" -T "TOTALTRACKS=%numtracks%" -T "COMMENT=%comment%" %source% -o %dest%
TOC of the extracted CD
Track | Start | Length | Start sector | End sector
---------------------------------------------------------
1 | 0:00.00 | 8:47.67 | 0 | 39591
2 | 8:47.67 | 13:57.33 | 39592 | 102399
3 | 22:45.25 | 12:18.12 | 102400 | 157761
4 | 35:03.37 | 10:55.63 | 157762 | 206949
Track 1
Filename C:\EAC rips\01 - Les Vieux Chapeaux.wav
Pre-gap length 0:00:02.00
Peak level 73.3 %
Extraction speed 2.7 X
Track quality 99.9 %
Test CRC 00EE901E
Copy CRC 00EE901E
Accurately ripped (confidence 1) [540A54E5] (AR v2)
Copy OK
Track 2
Filename C:\EAC rips\02 - L'Amour - Die Mauer.wav
Peak level 90.1 %
Extraction speed 3.8 X
Track quality 100.0 %
Test CRC C67F726F
Copy CRC C67F726F
Accurately ripped (confidence 1) [78E5D48E] (AR v2)
Copy OK
Track 3
Filename C:\EAC rips\03 - Kännsch Höngg_.wav
Pre-gap length 0:00:04.13
Peak level 90.1 %
Extraction speed 4.4 X
Track quality 100.0 %
Test CRC A895B82D
Copy CRC A895B82D
Accurately ripped (confidence 1) [D60EE3F2] (AR v2)
Copy OK
Track 4
Filename C:\EAC rips\04 - Who Is Afraid of Alain Monnier.wav
Pre-gap length 0:00:05.12
Peak level 90.0 %
Extraction speed 1.3 X
Track quality 99.7 %
Test CRC D0EA08AF
Copy CRC D0EA08AF
Accurately ripped (confidence 1) [37504FBA] (AR v2)
Copy OK
All tracks accurately ripped
No errors occurred
End of status report
---- CUETools DB Plugin V2.1.4
[CTDB TOCID: o7pxIqb4hpXpnoHdIe5FS4teC9k-] disk not present in database
Submit result: o7pxIqb4hpXpnoHdIe5FS4teC9k- has been uploaded
==== Log checksum 9449F0E140E08269A96723438CAE7E799C425430CB3F3F7D713F69F4471D853F ====
 
Содержание индексной карты (.CUE)
REM GENRE Jazz
REM DATE 1991
REM DISCID 2B0AC704
REM COMMENT "ExactAudioCopy v1.0b3"
PERFORMER "KuttelDaddelDu"
TITLE "Live in Lausanne"
FILE "01 - Les Vieux Chapeaux.wav" WAVE
TRACK 01 AUDIO
TITLE "Les Vieux Chapeaux"
PERFORMER "KuttelDaddelDu"
INDEX 01 00:00:00
FILE "02 - L'Amour - Die Mauer.wav" WAVE
TRACK 02 AUDIO
TITLE "L'Amour - Die Mauer"
PERFORMER "KuttelDaddelDu"
INDEX 01 00:00:00
TRACK 03 AUDIO
TITLE "Kännsch Höngg?"
PERFORMER "KuttelDaddelDu"
INDEX 00 13:53:20
FILE "03 - Kännsch Höngg_.wav" WAVE
INDEX 01 00:00:00
TRACK 04 AUDIO
TITLE "Who Is Afraid of Alain Monnier?"
PERFORMER "KuttelDaddelDu"
INDEX 00 12:13:00
FILE "04 - Who Is Afraid of Alain Monnier_.wav" WAVE
INDEX 01 00:00:00
Any questions -> support@pro-jazz.com. По всем вопросам пишите -> support@pro-jazz.com
21:47
142
Нет комментариев. Ваш будет первым!