Вы используете незарегистрированную версию компонента "Вкладки"!

Поиск

(Free Jazz, Modern Creative, Contemporary Jazz) BassDrumBone (Ray Anderson, Mark Hellias, Gerry Hemingway) - Wooferlo - 1989, FLAC (tracks+.cue), lossless

(Free Jazz, Modern Creative, Contemporary Jazz) BassDrumBone (Ray Anderson, Mark Hellias, Gerry Hemingway) - Wooferlo - 1989, FLAC (tracks+.cue), lossless
Треклист:
BassDrumBone / Wooferlo
Жанр: Free Jazz, Modern Creative, Contemporary Jazz
Носитель: CD
Страна-производитель диска: Italy
Год издания: 1989
Издатель (лейбл): Soul Note
Номер по каталогу: 121 187-2
Страна: USA
Аудиокодек: FLAC (*.flac)
Тип рипа: tracks+.cue
Битрейт аудио: lossless
Продолжительность: 46:54
Источник (релизер): gssmg7
Наличие сканов в содержимом раздачи: да
Треклист:
1. Wooferlo (3:57 )
2. I Don't Know (5:04)
3. Beau Regard (6:19 )
4. Sambali (6:24 )
5. Alligatory Crocodile (4:56 )
6. Space (9:16)
7. Arocka (4:59 )
8. Struttin With Some Mutton (5:59)
 
Лог создания рипа
Exact Audio Copy V1.0 beta 2 from 29. April 2011
EAC extraction logfile from 26. December 2013, 21:21
Bass Drum Bone / Wooferlo
Used drive : Optiarc DVD RW AD-5280S Adapter: 1 ID: 1
Read mode : Secure
Utilize accurate stream : Yes
Defeat audio cache : Yes
Make use of C2 pointers : No
Read offset correction : 48
Overread into Lead-In and Lead-Out : No
Fill up missing offset samples with silence : Yes
Delete leading and trailing silent blocks : No
Null samples used in CRC calculations : Yes
Used interface : Installed external ASPI interface
Gap handling : Appended to previous track
Used output format : User Defined Encoder
Selected bitrate : 128 kBit/s
Quality : High
Add ID3 tag : No
Command line compressor : C:\Program Files\FLAC\flac.exe
Additional command line options : -V -8 -T "Genre=%genre%" -T "Artist=%artist%" -T "Title=%title%" -T "Album=%albumtitle%" -T "Date=%year%" -T "Tracknumber=%tracknr%" -T "Comment=%comment%" %source%
TOC of the extracted CD
Track | Start | Length | Start sector | End sector
---------------------------------------------------------
1 | 0:00.33 | 3:57.00 | 33 | 17807
2 | 3:57.33 | 5:04.00 | 17808 | 40607
3 | 9:01.33 | 6:19.00 | 40608 | 69032
4 | 15:20.33 | 6:24.00 | 69033 | 97832
5 | 21:44.33 | 4:56.00 | 97833 | 120032
6 | 26:40.33 | 9:16.00 | 120033 | 161732
7 | 35:56.33 | 4:59.00 | 161733 | 184157
8 | 40:55.33 | 5:59.00 | 184158 | 211082
Track 1
Filename C:\Bass Drum Bone (1989) - Wooferlo\01 - Wooferlo.wav
Pre-gap length 0:00:02.33
Peak level 75.8 %
Extraction speed 4.5 X
Track quality 100.0 %
Test CRC 1F842FBA
Copy CRC 1F842FBA
Accurately ripped (confidence 3) [D992942D] (AR v1)
Copy OK
Track 2
Filename C:\Bass Drum Bone (1989) - Wooferlo\02 - I Don't Know.wav
Peak level 78.1 %
Extraction speed 5.2 X
Track quality 100.0 %
Test CRC 22B3BE58
Copy CRC 22B3BE58
Accurately ripped (confidence 3) [5CDE94A9] (AR v1)
Copy OK
Track 3
Filename C:\Bass Drum Bone (1989) - Wooferlo\03 - Beau Regard.wav
Peak level 76.3 %
Extraction speed 6.0 X
Track quality 100.0 %
Test CRC 571F29EB
Copy CRC 571F29EB
Accurately ripped (confidence 3) [53F53507] (AR v1)
Copy OK
Track 4
Filename C:\Bass Drum Bone (1989) - Wooferlo\04 - Sambali.wav
Peak level 76.3 %
Extraction speed 6.6 X
Track quality 100.0 %
Test CRC E9EE3AAB
Copy CRC E9EE3AAB
Accurately ripped (confidence 3) [41032CB7] (AR v1)
Copy OK
Track 5
Filename C:\Bass Drum Bone (1989) - Wooferlo\05 - Alligatory Crocodile.wav
Peak level 76.3 %
Extraction speed 7.0 X
Track quality 100.0 %
Test CRC 25E0E85A
Copy CRC 25E0E85A
Accurately ripped (confidence 3) [7FC6E0F6] (AR v1)
Copy OK
Track 6
Filename C:\Bass Drum Bone (1989) - Wooferlo\06 - Space.wav
Peak level 71.5 %
Extraction speed 7.9 X
Track quality 100.0 %
Test CRC 6E48BABB
Copy CRC 6E48BABB
Accurately ripped (confidence 3) [7AD99624] (AR v1)
Copy OK
Track 7
Filename C:\Bass Drum Bone (1989) - Wooferlo\07 - Arocka.wav
Peak level 76.3 %
Extraction speed 8.1 X
Track quality 100.0 %
Test CRC A89EBFF9
Copy CRC A89EBFF9
Accurately ripped (confidence 3) [D550E649] (AR v1)
Copy OK
Track 8
Filename C:\Bass Drum Bone (1989) - Wooferlo\08 - Struttin With Some Mutton.wav
Peak level 76.3 %
Extraction speed 8.6 X
Track quality 100.0 %
Test CRC 91FA69EF
Copy CRC 91FA69EF
Accurately ripped (confidence 3) [A015B8A0] (AR v1)
Copy OK
All tracks accurately ripped
No errors occurred
End of status report
==== Log checksum 42A2EB10793B8DB50D77DB4553C3CA39A6FCF14F95E28268C41684DDE2B9D3F6 ====
 
Содержание индексной карты (.CUE)
REM GENRE "Contemporary Jazz"
REM DATE 1989
REM DISCID 5E0AFE08
REM COMMENT "ExactAudioCopy v1.0b2"
CATALOG 0000000000000
PERFORMER "Bass Drum Bone"
TITLE "Wooferlo"
FILE "01 - Wooferlo.wav" WAVE
TRACK 01 AUDIO
TITLE "Wooferlo"
PERFORMER "Bass Drum Bone"
PREGAP 00:00:33
INDEX 01 00:00:00
FILE "02 - I Don't Know.wav" WAVE
TRACK 02 AUDIO
TITLE "I Don't Know"
PERFORMER "Bass Drum Bone"
INDEX 01 00:00:00
FILE "03 - Beau Regard.wav" WAVE
TRACK 03 AUDIO
TITLE "Beau Regard"
PERFORMER "Bass Drum Bone"
INDEX 01 00:00:00
FILE "04 - Sambali.wav" WAVE
TRACK 04 AUDIO
TITLE "Sambali"
PERFORMER "Bass Drum Bone"
INDEX 01 00:00:00
FILE "05 - Alligatory Crocodile.wav" WAVE
TRACK 05 AUDIO
TITLE "Alligatory Crocodile"
PERFORMER "Bass Drum Bone"
INDEX 01 00:00:00
FILE "06 - Space.wav" WAVE
TRACK 06 AUDIO
TITLE "Space"
PERFORMER "Bass Drum Bone"
INDEX 01 00:00:00
FILE "07 - Arocka.wav" WAVE
TRACK 07 AUDIO
TITLE "Arocka"
PERFORMER "Bass Drum Bone"
INDEX 01 00:00:00
FILE "08 - Struttin With Some Mutton.wav" WAVE
TRACK 08 AUDIO
TITLE "Struttin With Some Mutton"
PERFORMER "Bass Drum Bone"
INDEX 01 00:00:00
 
Доп. информация
Recorded November 2 and 3, 1987 at Barigozzi Studio, Milano
 
Об исполнителе (группе)
BassDrumBone is a trio with an unusual instrumentation and a unique sound. A true collective, their music combines three distinct compositional and improvisational approaches and an exceptional musical rapport. Mark Helias, Gerry Hemingway and Ray Anderson began performing as a trio in the fall of 1977. Their first record, "Oahspe", was released in 1979 on the Auricle Record label. Bob Rusch in his review of the record, wrote: "Exceptionally good music, fearlessly played and tightly coordinated. Recommended." In 1984 "Right Down your Alley" was released on Soul Note Records of Italy and in the beginning of 1986 "You Be" was released on the Minor Music label of Germany. Both records received acclaim from the European and American press including a five star review in Downbeat magazine for "You Be". In 1988 "Wooferlo" was released on the Soul Note label. Ben Watson of Wire Magazine commented: "Each musician has a story to tell, the solos are stuffed with event and happenstance". After 1988 the group went into dormancy while all three of its members pursued their own individual groups. In the fall of 1993 BassDrumBone regrouped for a tour in Europe and never sounded better. A tour in 1996 yielded "Hence the Reason"(enj9222) and in March of 1999 BDB released some archival material from 1986-97 on an Auricle Records cd entitled "Cooked to Perfection". BassDrumBone celebrated its 25th year together with the release of "March of Dimes" on the Dutch label Data. On the eve of our 30th anniversary, Clean Feed released "The Line Up".
 
Об альбоме (сборнике)
Bass-Drum-Bone is a three-way musical democracy featuring trombonist Ray Anderson, bassist Mark Helias and drummer Gerry Hemingway. Helias' intricate patterns and Hemingway's variety of sounds (a little reminiscent of Barry Altschul) keep the rhythms consistently inventive and inspire Anderson. The music ranges from the uptempo "I Don't Know" and the eccentric calypso "Sambali" to the catchy "Alligatory Crocodile." Only "Space," which at nine minutes wanders on a bit too long, is a minus. In general the musical partnership between these three talented improvisers is mutually rewarding and their accessible brand of avant-garde jazz is quite colorful. ~ scott yanow, allmusic.com
Recorded at the Bergozzi studio on BassDrumBone's 1987 European tour, this fourth recording of the trio, was to be followed by a six year hiatus of the band. The title track, "Wooferlo" has it's first incarnation here, with a later version showing up for the quintet on the cd "Special Detail". Also receiving it's first performance here is my piece "Space" which shows up again in a more orchestrated version on the cd "Down to the Wire" by the quartet. Mark Helias has many works featured here including his first recording of the work "Beau Regard" and also "Sambali" which shows up on the more recent "Hence the Reason" cd on Enja. But my favorite on this cd is of his much older work called "Arocka" which sports a quite demented interplay. Ray has his first version of "Alligatory Crocodile" which was to be later converted into the moniker for his current funk band. ~ gerryhemingway.com
 
Состав
Ray Anderson - trombone
Mark Helias - bass
Gerry Hemingway - drums
Any questions -> support@pro-jazz.com. По всем вопросам пишите -> support@pro-jazz.com
21:48
234
Нет комментариев. Ваш будет первым!