Поиск

(Free Jazz) [CD] Rodrigo Amado Motion Trio (Miguel Mira, Gabriel Ferrandini) - Motion Trio - 2009, FLAC (tracks+.cue), lossless

Треклист:
Rodrigo Amado Motion Trio / Motion Trio
Жанр: Free Jazz
Носитель: CD
Страна-производитель диска (релиза): Portugal
Год издания: 2009
Издатель (лейбл): European Echoes
Номер по каталогу: 004
Аудиокодек: FLAC (*.flac)
Тип рипа: tracks+.cue
Битрейт аудио: lossless
Продолжительность: 52:34
Источник (релизер): whatcd (6060842)
Наличие сканов в содержимом раздачи: нет
Треклист:
1 Language Call 11:30
2 Testify! 11:02
3 Radical Leaves 7:27
4 As We Move... 6:58
5 Ballad 2:22
6 In All Languages 13:06
 
Лог создания рипа
X Lossless Decoder version 20130602 (143.2)
XLD extraction logfile from 2013-07-11 02:15:35 +0400
Rodrigo Amado Motion Trio / Motion Trio
Used drive : HL-DT-ST DVDRW GX30N (revision RP09)
Media type : Pressed CD
Ripper mode : XLD Secure Ripper
Disable audio cache : OK for the drive with a cache less than 1375KiB
Make use of C2 pointers : NO
Read offset correction : 6
Max retry count : 100
Gap status : Analyzed, Appended (except HTOA)
TOC of the extracted CD
Track | Start | Length | Start sector | End sector
---------------------------------------------------------
1 | 00:00:00 | 11:31:29 | 0 | 51853
2 | 11:31:29 | 11:04:29 | 51854 | 101682
3 | 22:35:58 | 07:27:15 | 101683 | 135222
4 | 30:02:73 | 07:01:06 | 135223 | 166803
5 | 37:04:04 | 02:24:35 | 166804 | 177638
6 | 39:28:39 | 13:06:25 | 177639 | 236613
AccurateRip Summary
Disc not found in AccurateRip DB.
All Tracks
Album gain : -6.83 dB
Peak : 0.999969
Statistics
Read error : 0
Jitter error (maybe fixed) : 0
Retry sector count : 0
Damaged sector count : 0
Track 01
Filename : /Users/anch/Music/FLAC/Rodrigo Amado Motion Trio - 2009 - Motion Trio [MP3 320]/01 - Language Call.mp3
/Users/anch/Music/FLAC/Rodrigo Amado Motion Trio - 2009 - Motion Trio [MP3 V0]/01 - Language Call.mp3
/Users/anch/Music/FLAC/Rodrigo Amado Motion Trio - 2009 - Motion Trio [FLAC]/01 - Language Call.flac
Pre-gap length : 00:02:00
Track gain : -5.81 dB
Peak : 0.999969
CRC32 hash (test run) : FC100BF9
CRC32 hash : FC100BF9
CRC32 hash (skip zero) : 6CBB2A0A
AccurateRip v1 signature : DE01DBEC
AccurateRip v2 signature : 84073DBF
->Track not present in AccurateRip database.
Statistics
Read error : 0
Jitter error (maybe fixed) : 0
Retry sector count : 0
Damaged sector count : 0
Track 02
Filename : /Users/anch/Music/FLAC/Rodrigo Amado Motion Trio - 2009 - Motion Trio [MP3 320]/02 - Testify.mp3
/Users/anch/Music/FLAC/Rodrigo Amado Motion Trio - 2009 - Motion Trio [MP3 V0]/02 - Testify.mp3
/Users/anch/Music/FLAC/Rodrigo Amado Motion Trio - 2009 - Motion Trio [FLAC]/02 - Testify.flac
Pre-gap length : 00:02:00
Track gain : -6.50 dB
Peak : 0.999969
CRC32 hash (test run) : 6C4E6333
CRC32 hash : 6C4E6333
CRC32 hash (skip zero) : E3FE8709
AccurateRip v1 signature : C21E8127
AccurateRip v2 signature : 6858FC1B
->Track not present in AccurateRip database.
Statistics
Read error : 0
Jitter error (maybe fixed) : 0
Retry sector count : 0
Damaged sector count : 0
Track 03
Filename : /Users/anch/Music/FLAC/Rodrigo Amado Motion Trio - 2009 - Motion Trio [MP3 320]/03 - Radical Leaves.mp3
/Users/anch/Music/FLAC/Rodrigo Amado Motion Trio - 2009 - Motion Trio [MP3 V0]/03 - Radical Leaves.mp3
/Users/anch/Music/FLAC/Rodrigo Amado Motion Trio - 2009 - Motion Trio [FLAC]/03 - Radical Leaves.flac
Pre-gap length : 00:02:00
Track gain : -6.65 dB
Peak : 0.999969
CRC32 hash (test run) : C6CB77CE
CRC32 hash : C6CB77CE
CRC32 hash (skip zero) : 4B78F735
AccurateRip v1 signature : ABEEC7FD
AccurateRip v2 signature : D6099588
->Track not present in AccurateRip database.
Statistics
Read error : 0
Jitter error (maybe fixed) : 0
Retry sector count : 0
Damaged sector count : 0
Track 04
Filename : /Users/anch/Music/FLAC/Rodrigo Amado Motion Trio - 2009 - Motion Trio [MP3 320]/04 - As We Move....mp3
/Users/anch/Music/FLAC/Rodrigo Amado Motion Trio - 2009 - Motion Trio [MP3 V0]/04 - As We Move....mp3
/Users/anch/Music/FLAC/Rodrigo Amado Motion Trio - 2009 - Motion Trio [FLAC]/04 - As We Move....flac
Track gain : -6.71 dB
Peak : 0.999969
CRC32 hash (test run) : 24D22984
CRC32 hash : 24D22984
CRC32 hash (skip zero) : E2C49913
AccurateRip v1 signature : 72DE3CD5
AccurateRip v2 signature : AF2C6633
->Track not present in AccurateRip database.
Statistics
Read error : 0
Jitter error (maybe fixed) : 0
Retry sector count : 0
Damaged sector count : 0
Track 05
Filename : /Users/anch/Music/FLAC/Rodrigo Amado Motion Trio - 2009 - Motion Trio [MP3 320]/05 - Ballad.mp3
/Users/anch/Music/FLAC/Rodrigo Amado Motion Trio - 2009 - Motion Trio [MP3 V0]/05 - Ballad.mp3
/Users/anch/Music/FLAC/Rodrigo Amado Motion Trio - 2009 - Motion Trio [FLAC]/05 - Ballad.flac
Pre-gap length : 00:02:00
Track gain : -1.40 dB
Peak : 0.965057
CRC32 hash (test run) : A983E5CE
CRC32 hash : A983E5CE
CRC32 hash (skip zero) : 7C414552
AccurateRip v1 signature : 088E5DFA
AccurateRip v2 signature : 37F02D63
->Track not present in AccurateRip database.
Statistics
Read error : 0
Jitter error (maybe fixed) : 0
Retry sector count : 0
Damaged sector count : 0
Track 06
Filename : /Users/anch/Music/FLAC/Rodrigo Amado Motion Trio - 2009 - Motion Trio [MP3 320]/06 - In All Languages.mp3
/Users/anch/Music/FLAC/Rodrigo Amado Motion Trio - 2009 - Motion Trio [MP3 V0]/06 - In All Languages.mp3
/Users/anch/Music/FLAC/Rodrigo Amado Motion Trio - 2009 - Motion Trio [FLAC]/06 - In All Languages.flac
Pre-gap length : 00:02:00
Track gain : -8.10 dB
Peak : 0.999969
CRC32 hash (test run) : BBD98D39
CRC32 hash : BBD98D39
CRC32 hash (skip zero) : 5971AD55
AccurateRip v1 signature : 2C2A2B65
AccurateRip v2 signature : C9FEDF4A
->Track not present in AccurateRip database.
Statistics
Read error : 0
Jitter error (maybe fixed) : 0
Retry sector count : 0
Damaged sector count : 0
No errors occurred
End of status report
 
Содержание индексной карты (.CUE)
TITLE "Motion Trio"
PERFORMER "Rodrigo Amado Motion Trio"
REM GENRE "Free Jazz"
REM DATE "2009"
REM DISCNUMBER 1
REM TOTALDISCS 1
REM DISCID 490C5206
REM REPLAYGAIN_ALBUM_GAIN -6.83 dB
REM REPLAYGAIN_ALBUM_PEAK 0.999969
FILE "01 - Language Call.flac" WAVE
TRACK 01 AUDIO
TITLE "Language Call"
PERFORMER "Rodrigo Amado Motion Trio"
REM REPLAYGAIN_TRACK_GAIN -5.81 dB
REM REPLAYGAIN_TRACK_PEAK 0.999969
INDEX 01 00:00:00
TRACK 02 AUDIO
TITLE "Testify!"
PERFORMER "Rodrigo Amado Motion Trio"
REM REPLAYGAIN_TRACK_GAIN -6.50 dB
REM REPLAYGAIN_TRACK_PEAK 0.999969
INDEX 00 11:29:29
FILE "02 - Testify.flac" WAVE
INDEX 01 00:00:00
TRACK 03 AUDIO
TITLE "Radical Leaves"
PERFORMER "Rodrigo Amado Motion Trio"
REM REPLAYGAIN_TRACK_GAIN -6.65 dB
REM REPLAYGAIN_TRACK_PEAK 0.999969
INDEX 00 11:02:29
FILE "03 - Radical Leaves.flac" WAVE
INDEX 01 00:00:00
FILE "04 - As We Move....flac" WAVE
TRACK 04 AUDIO
TITLE "As We Move..."
PERFORMER "Rodrigo Amado Motion Trio"
REM REPLAYGAIN_TRACK_GAIN -6.71 dB
REM REPLAYGAIN_TRACK_PEAK 0.999969
INDEX 01 00:00:00
TRACK 05 AUDIO
TITLE "Ballad"
PERFORMER "Rodrigo Amado Motion Trio"
REM REPLAYGAIN_TRACK_GAIN -1.40 dB
REM REPLAYGAIN_TRACK_PEAK 0.965057
INDEX 00 06:59:06
FILE "05 - Ballad.flac" WAVE
INDEX 01 00:00:00
TRACK 06 AUDIO
TITLE "In All Languages"
PERFORMER "Rodrigo Amado Motion Trio"
REM REPLAYGAIN_TRACK_GAIN -8.10 dB
REM REPLAYGAIN_TRACK_PEAK 0.999969
INDEX 00 02:22:35
FILE "06 - In All Languages.flac" WAVE
INDEX 01 00:00:00
Доп. информация: Recorded & mixed at Namouche Studios, Lisbon, July 16th, 2009.
 
Об альбоме (сборнике)
After the excellent "The Abstract Truth", Portuguese saxophonist Rodrigo Amado presents his new trio, with Miguel Miro on cello and Gabriel Ferrandini on drums. The album is a wonderful example of free improvisation, often subdued, soft-toned, with the rhythm section not acting as a rhythm section to the lead instrument, but as a fully integrated part of the overall sound and interaction, to the extent that the individual voices are totally subordinate to it. As I wrote earlier, Amado is a master in intimate expansiveness, but the real quality of this music is the unrelenting tension, which captivates you and makes you want to know what will follow next, hoping that release will come. And sometimes it does, when the nervous pointillism breaks open in a triple powerplay, as on "Testify", or in suddenly blooming melodies, like in "As We Move ...".
Earlier today I listened to another CD, played by a band whose name I won't mention but with some of today's best modern jazz musicians, and I thought it was painfully technical, needlessly complex, too arranged, to much showing off, and utterly boring, unless you're likely to be impressed by skills. I listened to the whole album, hoping in vain for some surprise, some emotional depth, some creativity.
This trio belongs to a different category, one of artistry rather than entertainment, of emotional delivery rather than technical skill, of authentic expression rather than playing tunes. In sum, these guys know what music is all about and manage to play it well, coherently, disciplined, vulnerable and real. And free ...
 
Состав
Cello – Miguel Mira
Drums – Gabriel Ferrandini
Tenor Saxophone – Rodrigo Amado
По всем вопросам пишите личное сообщение пользователю M0p94ok.
07:19
211
Нет комментариев. Ваш будет первым!