Вы используете незарегистрированную версию компонента "Вкладки"!

Поиск

(Contemporary Jazz, Free Jazz) [CD] The Fonda - Stevens Group (Herb Robertson, Michael Jefry Stevens, Joe Fonda, Harvey Sorgen) - The Healing - 2002, FLAC (tracks+.cue), lossless

(Contemporary Jazz, Free Jazz) [CD] The Fonda - Stevens Group (Herb Robertson, Michael Jefry Stevens, Joe Fonda, Harvey Sorgen) - The Healing - 2002, FLAC (tracks+.cue), lossless
Треклист:
The Fonda - Stevens Group / The Healing
Жанр: Contemporary Jazz, Free Jazz
Носитель: CD
Страна-производитель диска (релиза): UK
Год издания: 2002
Издатель (лейбл): Leo Records
Номер по каталогу: CD LR 338
Аудиокодек: FLAC (*.flac)
Тип рипа: tracks+.cue
Битрейт аудио: lossless
Продолжительность: 60:01
Источник (релизер): cd
Наличие сканов в содержимом раздачи: нет
Треклист:
1 The Search 8:37
2 Soon To Know 10:46
3 Fast 4:49
4 Tania's Dream 7:21
5 Twelve 8:14
6 The Takeover 2:31
7 The Healing 13:37
8 Lei's Song 4:03
 
Лог создания рипа
Exact Audio Copy V1.0 beta 3 from 29. August 2011
EAC extraction logfile from 13. December 2014, 11:36
The Fonda - Stevens Group / The Healing
Used drive : ASUS DRW-24F1ST a Adapter: 0 ID: 0
Read mode : Secure
Utilize accurate stream : Yes
Defeat audio cache : Yes
Make use of C2 pointers : No
Read offset correction : 6
Overread into Lead-In and Lead-Out : No
Fill up missing offset samples with silence : Yes
Delete leading and trailing silent blocks : No
Null samples used in CRC calculations : Yes
Used interface : Native Win32 interface for Win NT & 2000
Gap handling : Appended to previous track
Used output format : User Defined Encoder
Selected bitrate : 320 kBit/s
Quality : High
Add ID3 tag : No
Command line compressor : D:\Programs\Exact Audio Copy\Flac\flac.exe
Additional command line options : -V -8 -T "Genre=%genre%" -T "Artist=%artist%" -T "Title=%title%" -T "Album=%albumtitle%" -T "Date=%year%" -T "Tracknumber=%tracknr%" -T "Comment=%comment%" %source%
TOC of the extracted CD
Track | Start | Length | Start sector | End sector
---------------------------------------------------------
1 | 0:00.00 | 8:36.31 | 0 | 38730
2 | 8:36.31 | 10:46.34 | 38731 | 87214
3 | 19:22.65 | 4:49.01 | 87215 | 108890
4 | 24:11.66 | 7:21.47 | 108891 | 142012
5 | 31:33.38 | 8:14.00 | 142013 | 179062
6 | 39:47.38 | 2:31.41 | 179063 | 190428
7 | 42:19.04 | 13:37.65 | 190429 | 251768
8 | 55:56.69 | 4:04.17 | 251769 | 270085
Track 1
Filename D:\EAC\01 The Search.wav
Pre-gap length 0:00:02.00
Peak level 87.8 %
Extraction speed 4.8 X
Track quality 100.0 %
Test CRC BE195517
Copy CRC BE195517
Copy OK
Track 2
Filename D:\EAC\02 Soon To Know.wav
Peak level 87.4 %
Extraction speed 5.9 X
Track quality 100.0 %
Test CRC 2D9E2ADA
Copy CRC 2D9E2ADA
Copy OK
Track 3
Filename D:\EAC\03 Fast.wav
Peak level 85.7 %
Extraction speed 6.2 X
Track quality 100.0 %
Test CRC 0AE5F858
Copy CRC 0AE5F858
Copy OK
Track 4
Filename D:\EAC\04 Tania's Dream.wav
Peak level 78.1 %
Extraction speed 6.9 X
Track quality 100.0 %
Test CRC 9DA7F19C
Copy CRC 9DA7F19C
Copy OK
Track 5
Filename D:\EAC\05 Twelve.wav
Peak level 90.1 %
Extraction speed 7.0 X
Track quality 99.9 %
Test CRC 9B7507B1
Copy CRC 9B7507B1
Copy OK
Track 6
Filename D:\EAC\06 The Takeover.wav
Peak level 87.9 %
Extraction speed 6.7 X
Track quality 100.0 %
Test CRC 67E83831
Copy CRC 67E83831
Copy OK
Track 7
Filename D:\EAC\07 The Healing.wav
Peak level 91.5 %
Extraction speed 8.6 X
Track quality 100.0 %
Test CRC AC776D04
Copy CRC AC776D04
Copy OK
Track 8
Filename D:\EAC\08 Lei's Song.wav
Peak level 98.8 %
Extraction speed 8.1 X
Track quality 100.0 %
Test CRC C717F3B7
Copy CRC C717F3B7
Copy OK
No errors occurred
End of status report
==== Log checksum 8C62FED65C1926D9E1E5AF51B4E5AB4F7C5F72089BD7834879B485A26A940951 ====
 
Содержание индексной карты (.CUE)
REM GENRE Jazz
REM DATE 2002
REM DISCID 750E1108
REM COMMENT "ExactAudioCopy v1.0b3"
PERFORMER "The Fonda - Stevens Group"
TITLE "The Healing"
FILE "01 The Search.wav" WAVE
TRACK 01 AUDIO
TITLE "The Search"
PERFORMER "The Fonda - Stevens Group"
INDEX 01 00:00:00
FILE "02 Soon To Know.wav" WAVE
TRACK 02 AUDIO
TITLE "Soon To Know"
PERFORMER "The Fonda - Stevens Group"
INDEX 01 00:00:00
FILE "03 Fast.wav" WAVE
TRACK 03 AUDIO
TITLE "Fast"
PERFORMER "The Fonda - Stevens Group"
INDEX 01 00:00:00
FILE "04 Tania's Dream.wav" WAVE
TRACK 04 AUDIO
TITLE "Tania's Dream"
PERFORMER "The Fonda - Stevens Group"
INDEX 01 00:00:00
FILE "05 Twelve.wav" WAVE
TRACK 05 AUDIO
TITLE "Twelve"
PERFORMER "The Fonda - Stevens Group"
INDEX 01 00:00:00
FILE "06 The Takeover.wav" WAVE
TRACK 06 AUDIO
TITLE "The Takeover"
PERFORMER "The Fonda - Stevens Group"
INDEX 01 00:00:00
FILE "07 The Healing.wav" WAVE
TRACK 07 AUDIO
TITLE "The Healing"
PERFORMER "The Fonda - Stevens Group"
INDEX 01 00:00:00
FILE "08 Lei's Song.wav" WAVE
TRACK 08 AUDIO
TITLE "Lei's Song"
PERFORMER "The Fonda - Stevens Group"
INDEX 01 00:00:00
Доп. информация: Recording dates:
Tracks 1, 3, 4, 6, 8 on 11 December 2000 at Tedesco Studios, Paramus, NJ
Tracks 2, 5 and 7 on 26 October 2000 in concert in Avignon
 
Состав
Bass – Joe Fonda
Drums, Mixed By – Harvey Sorgen
Piano – Michael Jefry Stevens
Trumpet – Herb Robertson
По всем вопросам пишите личное сообщение пользователю M0p94ok.
07:18
171
Нет комментариев. Ваш будет первым!