Вы используете незарегистрированную версию компонента "Вкладки"!

Поиск

(Avant-Garde Jazz, Contemporary) [CD] Daniel Erdmann & Christophe Marguet - Together, Together! - 2014, FLAC (tracks+.cue), lossless

(Avant-Garde Jazz, Contemporary) [CD] Daniel Erdmann & Christophe Marguet - Together, Together! - 2014, FLAC (tracks+.cue), lossless
Треклист:
Daniel Erdmann - Christophe Marguet
Together,
together!
Жанр: Avant-Garde Jazz, Contemporary
Страна-производитель диска (релиза): France
Год издания: 2014
Издатель (лейбл): Abalone Productions
Номер по каталогу: AB016
Аудиокодек: FLAC (*.flac)
Тип рипа: tracks+.cue
Битрейт аудио: lossless
Продолжительность: 49:12
Источник (релизер): спасибо dtromp
Наличие сканов в содержимом раздачи: да
Треклист:
01 one rhythm, one melody
02 in motion
03 african flower
04 together, together!
05 i siguia
06 1984
07 african dancer
08 lush life
09 tag-sonne
10 hommage(s)
11 namderyew, ed!
12 sur le fil illuminé
13 drugstore b.
 
Лог создания рипа
Exact Audio Copy V1.0 beta 3 from 29. August 2011
EAC extraction logfile from 16. December 2014, 0:01
Daniel Erdmann & Christophe Marguet / Together, together !
Used drive : ATAPI iHBS112 2 Adapter: 2 ID: 0
Read mode : Secure
Utilize accurate stream : Yes
Defeat audio cache : Yes
Make use of C2 pointers : No
Read offset correction : 6
Overread into Lead-In and Lead-Out : No
Fill up missing offset samples with silence : Yes
Delete leading and trailing silent blocks : No
Null samples used in CRC calculations : Yes
Used interface : Native Win32 interface for Win NT & 2000
Gap handling : Appended to previous track
Used output format : User Defined Encoder
Selected bitrate : 1024 kBit/s
Quality : High
Add ID3 tag : No
Command line compressor : C:\Program Files\FLAC Frontend\tools\flac.exe
Additional command line options : -8 -V -T "ARTIST=%artist%" -T "TITLE=%title%" -T "ALBUM=%albumtitle%" -T "DATE=%year%" -T "TRACKNUMBER=%tracknr%" -T "TOTALTRACKS=%numtracks%" -T "GENRE=%genre%" -T "ALBUMARTIST=%albumartist%" -T "ALBUM ARTIST=%albumartist%" -T "COMPOSER=%composer%" -T "PERFORMER=%albuminterpret%" -T "DISCNUMBER=%cdnumber%" -T "TOTALDISCS=%totalcds%" -T "COMMENT=EAC Secure Mode, Test & Copy, AccurateRip, FLAC -8" %source%
TOC of the extracted CD
Track | Start | Length | Start sector | End sector
---------------------------------------------------------
1 | 0:00.00 | 1:34.64 | 0 | 7113
2 | 1:34.64 | 4:18.67 | 7114 | 26530
3 | 5:53.56 | 4:50.27 | 26531 | 48307
4 | 10:44.08 | 0:58.51 | 48308 | 52708
5 | 11:42.59 | 1:32.72 | 52709 | 59680
6 | 13:15.56 | 3:24.39 | 59681 | 75019
7 | 16:40.20 | 5:48.60 | 75020 | 101179
8 | 22:29.05 | 3:44.53 | 101180 | 118032
9 | 26:13.58 | 4:18.45 | 118033 | 137427
10 | 30:32.28 | 7:33.67 | 137428 | 171469
11 | 38:06.20 | 4:45.36 | 171470 | 192880
12 | 42:51.56 | 3:17.14 | 192881 | 207669
13 | 46:08.70 | 3:20.38 | 207670 | 222707
Track 1
Filename P:\DL\Daniel Erdmann & Christophe Marguet - Together, together ! (2014) [FLAC]\01 - One rythm, one melody.wav
Pre-gap length 0:00:02.00
Peak level 85.7 %
Extraction speed 4.0 X
Track quality 100.0 %
Test CRC B00BAF38
Copy CRC B00BAF38
Track not present in AccurateRip database
Copy OK
Track 2
Filename P:\DL\Daniel Erdmann & Christophe Marguet - Together, together ! (2014) [FLAC]\02 - In motion.wav
Pre-gap length 0:00:01.65
Peak level 100.0 %
Extraction speed 5.2 X
Track quality 100.0 %
Test CRC 98421382
Copy CRC 98421382
Track not present in AccurateRip database
Copy OK
Track 3
Filename P:\DL\Daniel Erdmann & Christophe Marguet - Together, together ! (2014) [FLAC]\03 - African flower.wav
Peak level 100.0 %
Extraction speed 5.9 X
Track quality 100.0 %
Test CRC 758829FF
Copy CRC 758829FF
Track not present in AccurateRip database
Copy OK
Track 4
Filename P:\DL\Daniel Erdmann & Christophe Marguet - Together, together ! (2014) [FLAC]\04 - Together Together.wav
Pre-gap length 0:00:01.06
Peak level 100.0 %
Extraction speed 4.4 X
Track quality 100.0 %
Test CRC A017D1E1
Copy CRC A017D1E1
Track not present in AccurateRip database
Copy OK
Track 5
Filename P:\DL\Daniel Erdmann & Christophe Marguet - Together, together ! (2014) [FLAC]\05 - I Siguia.wav
Pre-gap length 0:00:01.62
Peak level 45.4 %
Extraction speed 3.7 X
Track quality 99.8 %
Test CRC A03257EB
Copy CRC A03257EB
Track not present in AccurateRip database
Copy OK
Track 6
Filename P:\DL\Daniel Erdmann & Christophe Marguet - Together, together ! (2014) [FLAC]\06 - 1984.wav
Pre-gap length 0:00:01.08
Peak level 100.0 %
Extraction speed 5.3 X
Track quality 99.9 %
Test CRC 80F757ED
Copy CRC 80F757ED
Track not present in AccurateRip database
Copy OK
Track 7
Filename P:\DL\Daniel Erdmann & Christophe Marguet - Together, together ! (2014) [FLAC]\07 - African Dancer.wav
Peak level 100.0 %
Extraction speed 7.4 X
Track quality 100.0 %
Test CRC F34DE03C
Copy CRC F34DE03C
Track not present in AccurateRip database
Copy OK
Track 8
Filename P:\DL\Daniel Erdmann & Christophe Marguet - Together, together ! (2014) [FLAC]\08 - Lush life.wav
Pre-gap length 0:00:01.94
Peak level 85.0 %
Extraction speed 7.5 X
Track quality 100.0 %
Test CRC F414CCBA
Copy CRC F414CCBA
Track not present in AccurateRip database
Copy OK
Track 9
Filename P:\DL\Daniel Erdmann & Christophe Marguet - Together, together ! (2014) [FLAC]\09 - Tag-Sonne.wav
Pre-gap length 0:00:02.26
Peak level 100.0 %
Extraction speed 6.6 X
Track quality 99.9 %
Test CRC 35872843
Copy CRC 35872843
Track not present in AccurateRip database
Copy OK
Track 10
Filename P:\DL\Daniel Erdmann & Christophe Marguet - Together, together ! (2014) [FLAC]\10 - Hommage(s).wav
Pre-gap length 0:00:01.01
Peak level 100.0 %
Extraction speed 8.8 X
Track quality 100.0 %
Test CRC 1B860AFC
Copy CRC 1B860AFC
Track not present in AccurateRip database
Copy OK
Track 11
Filename P:\DL\Daniel Erdmann & Christophe Marguet - Together, together ! (2014) [FLAC]\11 - Namderyew, ED.wav
Pre-gap length 0:00:01.14
Peak level 100.0 %
Extraction speed 8.9 X
Track quality 100.0 %
Test CRC 8050CEE5
Copy CRC 8050CEE5
Track not present in AccurateRip database
Copy OK
Track 12
Filename P:\DL\Daniel Erdmann & Christophe Marguet - Together, together ! (2014) [FLAC]\12 - Sur le fil illumine.wav
Pre-gap length 0:00:03.14
Peak level 100.0 %
Extraction speed 7.1 X
Track quality 99.9 %
Test CRC 821F7946
Copy CRC 821F7946
Track not present in AccurateRip database
Copy OK
Track 13
Filename P:\DL\Daniel Erdmann & Christophe Marguet - Together, together ! (2014) [FLAC]\13 - Drug store B..wav
Pre-gap length 0:00:01.72
Peak level 100.0 %
Extraction speed 7.0 X
Track quality 99.9 %
Test CRC 173DE4AE
Copy CRC 173DE4AE
Track not present in AccurateRip database
Copy OK
None of the tracks are present in the AccurateRip database
No errors occurred
End of status report
---- CUETools DB Plugin V2.1.3
[CTDB TOCID: eKhyk8hgG7OWg6IaFbtzYBzD4IU-] disk not present in database, Submit result: eKhyk8hgG7OWg6IaFbtzYBzD4IU- has been uploaded
==== Log checksum 8B667E9B264F59035FF257FC341F169D2492AE0EEA93AD98FA320325F3D1095B ====
 
Содержание индексной карты (.CUE)
REM GENRE Jazz
REM DATE 2014
REM DISCID B40B990D
REM COMMENT "ExactAudioCopy v1.0b3"
PERFORMER "Daniel Erdmann & Christophe Marguet"
TITLE "Together, together !"
FILE "01 - One rythm, one melody.wav" WAVE
TRACK 01 AUDIO
TITLE "One rythm, one melody"
PERFORMER "Daniel Erdmann & Christophe Marguet"
INDEX 01 00:00:00
TRACK 02 AUDIO
TITLE "In motion"
PERFORMER "Daniel Erdmann & Christophe Marguet"
INDEX 00 01:33:15
FILE "02 - In motion.wav" WAVE
INDEX 01 00:00:00
FILE "03 - African flower.wav" WAVE
TRACK 03 AUDIO
TITLE "African flower"
PERFORMER "Daniel Erdmann & Christophe Marguet"
INDEX 01 00:00:00
TRACK 04 AUDIO
TITLE "Together Together"
PERFORMER "Daniel Erdmann & Christophe Marguet"
INDEX 00 04:49:22
FILE "04 - Together Together.wav" WAVE
INDEX 01 00:00:00
TRACK 05 AUDIO
TITLE "I Siguia"
PERFORMER "Daniel Erdmann & Christophe Marguet"
INDEX 00 00:57:04
FILE "05 - I Siguia.wav" WAVE
INDEX 01 00:00:00
TRACK 06 AUDIO
TITLE "1984"
PERFORMER "Daniel Erdmann & Christophe Marguet"
INDEX 00 01:31:66
FILE "06 - 1984.wav" WAVE
INDEX 01 00:00:00
FILE "07 - African Dancer.wav" WAVE
TRACK 07 AUDIO
TITLE "African Dancer"
PERFORMER "Daniel Erdmann & Christophe Marguet"
INDEX 01 00:00:00
TRACK 08 AUDIO
TITLE "Lush life"
PERFORMER "Daniel Erdmann & Christophe Marguet"
INDEX 00 05:46:64
FILE "08 - Lush life.wav" WAVE
INDEX 01 00:00:00
TRACK 09 AUDIO
TITLE "Tag-Sonne"
PERFORMER "Daniel Erdmann & Christophe Marguet"
INDEX 00 03:42:33
FILE "09 - Tag-Sonne.wav" WAVE
INDEX 01 00:00:00
TRACK 10 AUDIO
TITLE "Hommage(s)"
PERFORMER "Daniel Erdmann & Christophe Marguet"
INDEX 00 04:17:44
FILE "10 - Hommage(s).wav" WAVE
INDEX 01 00:00:00
TRACK 11 AUDIO
TITLE "Namderyew, ED"
PERFORMER "Daniel Erdmann & Christophe Marguet"
INDEX 00 07:32:56
FILE "11 - Namderyew, ED.wav" WAVE
INDEX 01 00:00:00
TRACK 12 AUDIO
TITLE "Sur le fil illuminй"
PERFORMER "Daniel Erdmann & Christophe Marguet"
INDEX 00 04:42:25
FILE "12 - Sur le fil illumine.wav" WAVE
INDEX 01 00:00:00
TRACK 13 AUDIO
TITLE "Drug store B."
PERFORMER "Daniel Erdmann & Christophe Marguet"
INDEX 00 03:15:35
FILE "13 - Drug store B..wav" WAVE
INDEX 01 00:00:00
 
Состав

Daniel Erdmann - tenor saxophone
Christophe Marguet - drums
По всем вопросам пишите личное сообщение пользователю M0p94ok.
07:20
141
Нет комментариев. Ваш будет первым!