Вы используете незарегистрированную версию компонента "Вкладки"!

Поиск

(Modern Jazz) [CD] Tin/Bag (Kris Tiner & Mike Baggetta) - Bridges - 2011, FLAC (tracks+.cue), lossless

(Modern Jazz) [CD] Tin/Bag (Kris Tiner & Mike Baggetta) - Bridges - 2011, FLAC (tracks+.cue), lossless
Треклист:
Tin/Bag – Bridges
Жанр: Modern Jazz
Носитель: CD
Страна-производитель диска (релиза): U.S.A.
Год издания: 2011
Издатель (лейбл): MabnotesMusic
Номер по каталогу: MMCD002
Аудиокодек: FLAC (*.flac)
Тип рипа: tracks+.cue
Битрейт аудио: lossless
Продолжительность: 40:52
Источник (релизер): я
Наличие сканов в содержимом раздачи: да
Треклист:
1. Bobo 6:01
2. Maslow 6:21
3. Osho 3:32
4. Bridges (Mike Baggetta) 5:48
5. Aurobindo 3:02
6. Govinda 3:34
7. The Truth (Mike Baggetta) 6:10
8. Inayat Khan 2:25
9. Just Like a Woman (Bob Dylan) 4:00
All tracks composed by Kris Tiner except where indicated.
Recorded at Systems Two in Brooklyn, New York on January 16, 2010.
Kris Tiner – Trumpet
Mike Baggetta – Guitar
 
Лог создания рипа
Exact Audio Copy V1.0 beta 3 from 29. August 2011
EAC extraction logfile from 2. December 2014, 15:52
Tin/Bag / Bridges
Used drive : SlimtypeeNAU508 5 Adapter: 1 ID: 0
Read mode : Secure
Utilize accurate stream : Yes
Defeat audio cache : Yes
Make use of C2 pointers : No
Read offset correction : 6
Overread into Lead-In and Lead-Out : No
Fill up missing offset samples with silence : Yes
Delete leading and trailing silent blocks : No
Null samples used in CRC calculations : Yes
Used interface : Native Win32 interface for Win NT & 2000
Gap handling : Appended to previous track
Used output format : User Defined Encoder
Selected bitrate : 768 kBit/s
Quality : High
Add ID3 tag : No
Command line compressor : C:\Program Files (x86)\Exact Audio Copy\Flac\flac.exe
Additional command line options : -8 -V -T "ARTIST=%artist%" -T "TITLE=%title%" -T "ALBUM=%albumtitle%" -T "DATE=%year%" -T "TRACKNUMBER=%tracknr%" -T "TOTALTRACKS=%numtracks%" -T "GENRE=%genre%" -T "ALBUMARTIST=%albumartist%" -T "ALBUM ARTIST=%albumartist%" -T "COMMENT=EAC Secure Mode, Test & Copy, AccurateRip, FLAC -8" %source%
TOC of the extracted CD
Track | Start | Length | Start sector | End sector
---------------------------------------------------------
1 | 0:00.00 | 6:01.03 | 0 | 27077
2 | 6:01.03 | 6:21.12 | 27078 | 55664
3 | 12:22.15 | 3:32.27 | 55665 | 71591
4 | 15:54.42 | 5:47.46 | 71592 | 97662
5 | 21:42.13 | 3:01.68 | 97663 | 111305
6 | 24:44.06 | 3:33.40 | 111306 | 127320
7 | 28:17.46 | 6:09.67 | 127321 | 155062
8 | 34:27.38 | 2:24.58 | 155063 | 165920
9 | 36:52.21 | 3:59.64 | 165921 | 183909
Track 1
Filename C:\EAC rips\01 - Bobo.wav
Pre-gap length 0:00:02.00
Peak level 97.7 %
Extraction speed 2.4 X
Track quality 100.0 %
Test CRC 210E5881
Copy CRC 210E5881
Accurately ripped (confidence 1) [BBB86A50] (AR v1)
Copy OK
Track 2
Filename C:\EAC rips\02 - Maslow.wav
Pre-gap length 0:00:02.00
Peak level 97.7 %
Extraction speed 2.8 X
Track quality 100.0 %
Test CRC F86F2526
Copy CRC F86F2526
Accurately ripped (confidence 1) [9E9EE786] (AR v1)
Copy OK
Track 3
Filename C:\EAC rips\03 - Osho.wav
Pre-gap length 0:00:02.00
Peak level 87.2 %
Extraction speed 2.8 X
Track quality 100.0 %
Test CRC 0A52ABB6
Copy CRC 0A52ABB6
Accurately ripped (confidence 1) [7669A52C] (AR v1)
Copy OK
Track 4
Filename C:\EAC rips\04 - Bridges.wav
Pre-gap length 0:00:02.00
Peak level 96.5 %
Extraction speed 2.8 X
Track quality 99.9 %
Test CRC 6866038D
Copy CRC 6866038D
Accurately ripped (confidence 1) [AC43C8D3] (AR v1)
Copy OK
Track 5
Filename C:\EAC rips\05 - Aurobindo.wav
Pre-gap length 0:00:02.00
Peak level 83.4 %
Extraction speed 2.4 X
Track quality 99.9 %
Test CRC 474B8B8A
Copy CRC 474B8B8A
Accurately ripped (confidence 1) [915F38CB] (AR v1)
Copy OK
Track 6
Filename C:\EAC rips\06 - Govinda.wav
Pre-gap length 0:00:02.00
Peak level 94.1 %
Extraction speed 3.2 X
Track quality 100.0 %
Test CRC 1CD054C0
Copy CRC 1CD054C0
Accurately ripped (confidence 1) [3C2C4CDC] (AR v1)
Copy OK
Track 7
Filename C:\EAC rips\07 - The Truth.wav
Pre-gap length 0:00:02.00
Peak level 97.0 %
Extraction speed 3.7 X
Track quality 100.0 %
Test CRC C8B7625C
Copy CRC C8B7625C
Accurately ripped (confidence 1) [F614CA25] (AR v1)
Copy OK
Track 8
Filename C:\EAC rips\08 - Inayat Khan.wav
Pre-gap length 0:00:02.00
Peak level 79.0 %
Extraction speed 2.6 X
Track quality 99.9 %
Test CRC 271FF81B
Copy CRC 271FF81B
Accurately ripped (confidence 1) [7E43DAC5] (AR v1)
Copy OK
Track 9
Filename C:\EAC rips\09 - Just Like a Woman.wav
Pre-gap length 0:00:02.00
Peak level 86.0 %
Extraction speed 3.8 X
Track quality 100.0 %
Test CRC 3C03B753
Copy CRC 3C03B753
Accurately ripped (confidence 1) [1A9A6143] (AR v1)
Copy OK
All tracks accurately ripped
No errors occurred
End of status report
---- CUETools DB Plugin V2.1.4
[CTDB TOCID: OOIqwVhVnuI4MlLo.qjbLcWjKI0-] found
Submit result: already submitted
Track | CTDB Status
1 | (2/2) Accurately ripped
2 | (2/2) Accurately ripped
3 | (2/2) Accurately ripped
4 | (2/2) Accurately ripped
5 | (2/2) Accurately ripped
6 | (2/2) Accurately ripped
7 | (2/2) Accurately ripped
8 | (2/2) Accurately ripped
9 | (2/2) Accurately ripped
==== Log checksum 03DA37884352493C56C21510EF10CD9971606EA6188D0B671ECAA801E6DBE8A0 ====
 
Содержание индексной карты (.CUE)
REM GENRE "MabnotesMusic MMCD002"
REM DATE 2011
REM DISCID 7F099409
REM COMMENT "ExactAudioCopy v1.0b3"
PERFORMER "Tin/Bag"
TITLE "Bridges"
FILE "01 - Bobo.wav" WAVE
TRACK 01 AUDIO
TITLE "Bobo "
PERFORMER "Tin/Bag"
ISRC USX9P1084084
INDEX 01 00:00:00
TRACK 02 AUDIO
TITLE "Maslow"
PERFORMER "Tin/Bag"
ISRC USX9P1084085
INDEX 00 05:59:03
FILE "02 - Maslow.wav" WAVE
INDEX 01 00:00:00
TRACK 03 AUDIO
TITLE "Osho"
PERFORMER "Tin/Bag"
ISRC USX9P1084086
INDEX 00 06:19:12
FILE "03 - Osho.wav" WAVE
INDEX 01 00:00:00
TRACK 04 AUDIO
TITLE "Bridges"
PERFORMER "Tin/Bag"
ISRC USX9P1084087
INDEX 00 03:30:27
FILE "04 - Bridges.wav" WAVE
INDEX 01 00:00:00
TRACK 05 AUDIO
TITLE "Aurobindo"
PERFORMER "Tin/Bag"
ISRC USX9P1084088
INDEX 00 05:45:46
FILE "05 - Aurobindo.wav" WAVE
INDEX 01 00:00:00
TRACK 06 AUDIO
TITLE "Govinda"
PERFORMER "Tin/Bag"
ISRC USX9P1084089
INDEX 00 02:59:68
FILE "06 - Govinda.wav" WAVE
INDEX 01 00:00:00
TRACK 07 AUDIO
TITLE "The Truth"
PERFORMER "Tin/Bag"
ISRC USX9P1084090
INDEX 00 03:31:40
FILE "07 - The Truth.wav" WAVE
INDEX 01 00:00:00
TRACK 08 AUDIO
TITLE "Inayat Khan"
PERFORMER "Tin/Bag"
ISRC USX9P1084091
INDEX 00 06:07:67
FILE "08 - Inayat Khan.wav" WAVE
INDEX 01 00:00:00
TRACK 09 AUDIO
TITLE "Just Like a Woman"
PERFORMER "Tin/Bag"
ISRC USX9P1084092
INDEX 00 02:22:58
FILE "09 - Just Like a Woman.wav" WAVE
INDEX 01 00:00:00
По всем вопросам пишите личное сообщение пользователю M0p94ok.
07:21
151
Нет комментариев. Ваш будет первым!