Вы используете незарегистрированную версию компонента "Вкладки"!

Поиск

(Free Jazz) [CD] Robin Kenyatta - Until (1968) - 2013 {Japan Jazz Best Collection 1000 Series 24bit Remastered, WPCR-27317}, FLAC (tracks+.cue), lossless

(Free Jazz) [CD] Robin Kenyatta - Until (1968) - 2013 {Japan Jazz Best Collection 1000 Series 24bit Remastered, WPCR-27317}, FLAC (tracks+.cue), lossless
Треклист:
Robin Kenyatta - Until (1968)
Жанр: Free Jazz
Носитель: CD
Страна-производитель диска: Japan
Год издания: 2013
Издатель (лейбл): Atlantic/Warner Japan/Rhino/Vortex
Номер по каталогу: WPCR-27317
Аудиокодек: FLAC (*.flac)
Тип рипа: tracks+.cue
Битрейт аудио: lossless
Продолжительность: 35:42
Rip by ruskaval
Наличие сканов в содержимом раздачи: да
Треклист:
01. Until (6:32)
02. This Year (10:47)
03. You Know How We Do (11:12)
04. Little Blue Devil (7:11)
Personnel:
Robin Kenyatta - as
Mike Lawrence - tp
Fred Simmons - p
Walter Booker - b
Horace Arnold - d
Roswell Rudd - tb
Lewis Worrell - b
Archie Lee - perc
 
 
 
 
Лог создания рипа
Exact Audio Copy V1.0 beta 3 from 29. August 2011
EAC extraction logfile from 11. September 2014, 21:43
Robin Kenyatta / Until
Used drive : TSSTcorpCDDVDW SE-208DB Adapter: 7 ID: 0
Read mode : Secure
Utilize accurate stream : Yes
Defeat audio cache : Yes
Make use of C2 pointers : No
Read offset correction : 6
Overread into Lead-In and Lead-Out : No
Fill up missing offset samples with silence : Yes
Delete leading and trailing silent blocks : No
Null samples used in CRC calculations : Yes
Used interface : Native Win32 interface for Win NT & 2000
Gap handling : Appended to previous track
Used output format : User Defined Encoder
Selected bitrate : 1024 kBit/s
Quality : High
Add ID3 tag : No
Command line compressor : C:\Program Files (x86)\FLAC Frontend\tools\flac.exe
Additional command line options : -8 -V -T "ARTIST=%artist%" -T "TITLE=%title%" -T "ALBUM=%albumtitle%" -T "DATE=%year%" -T "TRACKNUMBER=%tracknr%" -T "TOTALTRACKS=%numtracks%" -T "GENRE=%genre%" -T "ALBUMARTIST=%albumartist%" -T "ALBUM ARTIST=%albumartist%" -T "COMMENT=EAC Secure Mode, Test & Copy, AccurateRip, FLAC -8" %source%
TOC of the extracted CD
Track | Start | Length | Start sector | End sector
---------------------------------------------------------
1 | 0:00.00 | 6:32.10 | 0 | 29409
2 | 6:32.10 | 10:46.72 | 29410 | 77931
3 | 17:19.07 | 11:11.66 | 77932 | 128322
4 | 28:30.73 | 7:11.16 | 128323 | 160663
Track 1
Filename C:\Robin Kenyatta - Until (1968) {2013 Japan 24-bit Remaster} [Jazz Best Collection 1000 Series]\01 - Until.wav
Pre-gap length 0:00:02.00
Peak level 100.0 %
Extraction speed 2.8 X
Track quality 100.0 %
Test CRC 54BB54DA
Copy CRC 54BB54DA
Track not present in AccurateRip database
Copy OK
Track 2
Filename C:\Robin Kenyatta - Until (1968) {2013 Japan 24-bit Remaster} [Jazz Best Collection 1000 Series]\02 - This Year.wav
Pre-gap length 0:00:02.24
Peak level 100.0 %
Extraction speed 3.6 X
Track quality 100.0 %
Test CRC D47A7839
Copy CRC D47A7839
Track not present in AccurateRip database
Copy OK
Track 3
Filename C:\Robin Kenyatta - Until (1968) {2013 Japan 24-bit Remaster} [Jazz Best Collection 1000 Series]\03 - You Know How We Do.wav
Pre-gap length 0:00:01.45
Peak level 100.0 %
Extraction speed 4.2 X
Track quality 100.0 %
Test CRC 2F0B47F7
Copy CRC 2F0B47F7
Track not present in AccurateRip database
Copy OK
Track 4
Filename C:\Robin Kenyatta - Until (1968) {2013 Japan 24-bit Remaster} [Jazz Best Collection 1000 Series]\04 - Little Blue Devil.wav
Pre-gap length 0:00:02.52
Peak level 100.0 %
Extraction speed 4.6 X
Track quality 100.0 %
Test CRC 1B4A93FA
Copy CRC 1B4A93FA
Track not present in AccurateRip database
Copy OK
None of the tracks are present in the AccurateRip database
No errors occurred
End of status report
==== Log checksum C15A72194BF442F707F3CE6D7FAEB86CFDDDFC62573B61B83D688AC35C9559E8 ====
 
Содержание индексной карты (.CUE)
REM GENRE Jazz
REM DATE 1968
REM DISCID 23085E04
REM COMMENT "ExactAudioCopy v1.0b3"
PERFORMER "Robin Kenyatta"
TITLE "Until"
FILE "01 - Until.wav" WAVE
TRACK 01 AUDIO
TITLE "Until"
PERFORMER "Robin Kenyatta"
INDEX 01 00:00:00
TRACK 02 AUDIO
TITLE "This Year"
PERFORMER "Robin Kenyatta"
INDEX 00 06:29:61
FILE "02 - This Year.wav" WAVE
INDEX 01 00:00:00
TRACK 03 AUDIO
TITLE "You Know How We Do"
PERFORMER "Robin Kenyatta"
INDEX 00 10:45:27
FILE "03 - You Know How We Do.wav" WAVE
INDEX 01 00:00:00
TRACK 04 AUDIO
TITLE "Little Blue Devil"
PERFORMER "Robin Kenyatta"
INDEX 00 11:09:14
FILE "04 - Little Blue Devil.wav" WAVE
INDEX 01 00:00:00
 
CUETools log
[CUETools log; Date: 12.09.2014 9:54:42; Version: 2.0.9]
[CTDB TOCID: wg0wBYJYUwgQk.Jtu.wlf50tlZM-] disk not present in database.
[AccurateRip ID: 00060c29-00188e0d-23085e04] disk not present in database.
Track Peak [ CRC32 ] [W/O NULL] [ LOG ]
-- 100,0 [A89D5089] [A3877993]
01 100,0 [54BB54DA] [97D3A85D] CRC32
02 100,0 [D47A7839] [2335FEFE] CRC32
03 100,0 [2F0B47F7] [F52E8FA6] CRC32
04 100,0 [1B4A93FA] [52B5B6C5] CRC32
По всем вопросам пишите личное сообщение пользователю M0p94ok.
04:30
146
Нет комментариев. Ваш будет первым!