Вы используете незарегистрированную версию компонента "Вкладки"!

Поиск

(Avant-Garde, Free Improvisation, NotTwo Records) [CD] Harvey Sorgen, Herb Robertson, Steve Rust - Rumble Seat - 2012, FLAC (tracks+.cue), lossless

(Avant-Garde, Free Improvisation, NotTwo Records) [CD] Harvey Sorgen, Herb Robertson, Steve Rust - Rumble Seat - 2012, FLAC (tracks+.cue), lossless
Треклист:
Sorgen, Robertson, Rust / Rumble Seat
Жанр: Avant-Garde, Free Improvisation, NotTwo Records
Носитель: CD
Страна-производитель диска: Poland
Год издания: 2012
Издатель (лейбл): NotTwo Records
Номер по каталогу: MW 866-2
Аудиокодек: FLAC (*.flac)
Тип рипа: tracks+.cue
Битрейт аудио: lossless
Продолжительность: 1:10:19
Источник (релизер): я
Наличие сканов в содержимом раздачи: да
Треклист:
01. Eyes (6:16)
02. In the Core (7:11)
03. The Plaintive Heart (6:07)
04. Auslander (4:08)
05. Beauty in the Fan (Harvey Sorgen) (5:02)
06. Zabadoo (4:35)
07. Gerty Girth (4:59)
08. Russian Roulette (2:50)
09. Surge (7:33)
10. TRILO 6 (6:48)
11. Barron Barracuda (5:31)
12. Heliopolis (3:01)
13. The Dragons Lair (6:17)
All compositions by Sorgen / Rust / Robertson except where indicated.
Recorded at Applehead Studios, Woodstock, NY.
Herb Robertson – trumpets and sounds
Harvey Sorgen – drums ans sounds
Steve Rust – basses and sounds
 
Лог создания рипа
Exact Audio Copy V1.0 beta 3 from 29. August 2011
EAC extraction logfile from 19. July 2014, 14:00
Sorgen, Robertson, Rust / Rumble Seat
Used drive : SlimtypeeNAU508 5 Adapter: 1 ID: 0
Read mode : Secure
Utilize accurate stream : Yes
Defeat audio cache : Yes
Make use of C2 pointers : No
Read offset correction : 6
Overread into Lead-In and Lead-Out : No
Fill up missing offset samples with silence : Yes
Delete leading and trailing silent blocks : No
Null samples used in CRC calculations : Yes
Used interface : Native Win32 interface for Win NT & 2000
Gap handling : Appended to previous track
Used output format : User Defined Encoder
Selected bitrate : 768 kBit/s
Quality : High
Add ID3 tag : No
Command line compressor : C:\Program Files (x86)\Exact Audio Copy\Flac\flac.exe
Additional command line options : -8 -V -T "ARTIST=%artist%" -T "TITLE=%title%" -T "ALBUM=%albumtitle%" -T "DATE=%year%" -T "TRACKNUMBER=%tracknr%" -T "TOTALTRACKS=%numtracks%" -T "GENRE=%genre%" -T "ALBUMARTIST=%albumartist%" -T "ALBUM ARTIST=%albumartist%" -T "COMMENT=EAC Secure Mode, Test & Copy, AccurateRip, FLAC -8" %source%
TOC of the extracted CD
Track | Start | Length | Start sector | End sector
---------------------------------------------------------
1 | 0:00.00 | 6:16.19 | 0 | 28218
2 | 6:16.19 | 7:10.59 | 28219 | 60527
3 | 13:27.03 | 6:06.49 | 60528 | 88026
4 | 19:33.52 | 4:08.28 | 88027 | 106654
5 | 23:42.05 | 5:02.05 | 106655 | 129309
6 | 28:44.10 | 4:35.34 | 129310 | 149968
7 | 33:19.44 | 4:58.62 | 149969 | 172380
8 | 38:18.31 | 2:50.25 | 172381 | 185155
9 | 41:08.56 | 7:33.07 | 185156 | 219137
10 | 48:41.63 | 6:47.52 | 219138 | 249714
11 | 55:29.40 | 5:31.16 | 249715 | 274555
12 | 61:00.56 | 3:01.28 | 274556 | 288158
13 | 64:02.09 | 6:16.48 | 288159 | 316406
Track 1
Filename C:\EAC rips\01 - Eyes.wav
Pre-gap length 0:00:02.00
Peak level 93.7 %
Extraction speed 2.0 X
Track quality 100.0 %
Test CRC 27387905
Copy CRC 27387905
Track not present in AccurateRip database
Copy OK
Track 2
Filename C:\EAC rips\02 - In the Core.wav
Pre-gap length 0:00:02.00
Peak level 100.0 %
Extraction speed 2.3 X
Track quality 100.0 %
Test CRC 1B1AC81C
Copy CRC 1B1AC81C
Track not present in AccurateRip database
Copy OK
Track 3
Filename C:\EAC rips\03 - The Plaintive Heart.wav
Pre-gap length 0:00:02.00
Peak level 79.4 %
Extraction speed 2.5 X
Track quality 100.0 %
Test CRC 14BCFAFF
Copy CRC 14BCFAFF
Track not present in AccurateRip database
Copy OK
Track 4
Filename C:\EAC rips\04 - Auslander.wav
Pre-gap length 0:00:02.00
Peak level 88.2 %
Extraction speed 2.6 X
Track quality 100.0 %
Test CRC 1C1D5C4F
Copy CRC 1C1D5C4F
Track not present in AccurateRip database
Copy OK
Track 5
Filename C:\EAC rips\05 - Beauty in the Fan.wav
Pre-gap length 0:00:02.00
Peak level 81.3 %
Extraction speed 2.8 X
Track quality 100.0 %
Test CRC 2B741141
Copy CRC 2B741141
Track not present in AccurateRip database
Copy OK
Track 6
Filename C:\EAC rips\06 - Zabadoo.wav
Pre-gap length 0:00:02.00
Peak level 89.1 %
Extraction speed 2.9 X
Track quality 100.0 %
Test CRC 04F61FF8
Copy CRC 04F61FF8
Track not present in AccurateRip database
Copy OK
Track 7
Filename C:\EAC rips\07 - Gerty Girth.wav
Pre-gap length 0:00:02.00
Peak level 100.0 %
Extraction speed 3.0 X
Track quality 100.0 %
Test CRC C82B81D8
Copy CRC C82B81D8
Track not present in AccurateRip database
Copy OK
Track 8
Filename C:\EAC rips\08 - Russian Roulette.wav
Pre-gap length 0:00:02.00
Peak level 59.1 %
Extraction speed 2.5 X
Track quality 99.9 %
Test CRC C41AA704
Copy CRC C41AA704
Track not present in AccurateRip database
Copy OK
Track 9
Filename C:\EAC rips\09 - Surge.wav
Pre-gap length 0:00:02.00
Peak level 90.6 %
Extraction speed 3.5 X
Track quality 100.0 %
Test CRC 8BF32955
Copy CRC 8BF32955
Track not present in AccurateRip database
Copy OK
Track 10
Filename C:\EAC rips\10 - TRILO 6.wav
Pre-gap length 0:00:02.00
Peak level 91.2 %
Extraction speed 3.3 X
Track quality 99.9 %
Test CRC 5E7AB783
Copy CRC 5E7AB783
Track not present in AccurateRip database
Copy OK
Track 11
Filename C:\EAC rips\11 - Barron Barracuda.wav
Pre-gap length 0:00:02.00
Peak level 95.0 %
Extraction speed 3.7 X
Track quality 100.0 %
Test CRC 39216791
Copy CRC 39216791
Track not present in AccurateRip database
Copy OK
Track 12
Filename C:\EAC rips\12 - Heliopolis.wav
Pre-gap length 0:00:02.00
Peak level 95.3 %
Extraction speed 3.4 X
Track quality 100.0 %
Test CRC 48D9BC29
Copy CRC 48D9BC29
Track not present in AccurateRip database
Copy OK
Track 13
Filename C:\EAC rips\13 - The Dragons Lair.wav
Pre-gap length 0:00:02.00
Peak level 100.0 %
Extraction speed 3.9 X
Track quality 100.0 %
Test CRC 62F6A5AE
Copy CRC 62F6A5AE
Track not present in AccurateRip database
Copy OK
None of the tracks are present in the AccurateRip database
No errors occurred
End of status report
---- CUETools DB Plugin V2.1.4
[CTDB TOCID: gAPjpeDYGSfrzUijhCxfVSKADJM-] disk not present in database
Submit result: gAPjpeDYGSfrzUijhCxfVSKADJM- has been uploaded
==== Log checksum 9AF48737DD5D32A3302A298644BC80F6ED8425CAFADB15B9E9423CA3EA28D492 ====
 
Содержание индексной карты (.CUE)
REM GENRE Jazz
REM DATE 2012
REM DISCID A1107A0D
REM COMMENT "ExactAudioCopy v1.0b3"
PERFORMER "Sorgen, Robertson, Rust"
TITLE "Rumble Seat"
FILE "01 - Eyes.wav" WAVE
TRACK 01 AUDIO
TITLE "Eyes"
PERFORMER "Sorgen, Robertson, Rust"
INDEX 01 00:00:00
TRACK 02 AUDIO
TITLE "In the Core"
PERFORMER "Sorgen, Robertson, Rust"
INDEX 00 06:14:19
FILE "02 - In the Core.wav" WAVE
INDEX 01 00:00:00
TRACK 03 AUDIO
TITLE "The Plaintive Heart"
PERFORMER "Sorgen, Robertson, Rust"
INDEX 00 07:08:59
FILE "03 - The Plaintive Heart.wav" WAVE
INDEX 01 00:00:00
TRACK 04 AUDIO
TITLE "Auslander"
PERFORMER "Sorgen, Robertson, Rust"
INDEX 00 06:04:49
FILE "04 - Auslander.wav" WAVE
INDEX 01 00:00:00
TRACK 05 AUDIO
TITLE "Beauty in the Fan"
PERFORMER "Sorgen, Robertson, Rust"
INDEX 00 04:06:28
FILE "05 - Beauty in the Fan.wav" WAVE
INDEX 01 00:00:00
TRACK 06 AUDIO
TITLE "Zabadoo"
PERFORMER "Sorgen, Robertson, Rust"
INDEX 00 05:00:05
FILE "06 - Zabadoo.wav" WAVE
INDEX 01 00:00:00
TRACK 07 AUDIO
TITLE "Gerty Girth"
PERFORMER "Sorgen, Robertson, Rust"
INDEX 00 04:33:34
FILE "07 - Gerty Girth.wav" WAVE
INDEX 01 00:00:00
TRACK 08 AUDIO
TITLE "Russian Roulette"
PERFORMER "Sorgen, Robertson, Rust"
INDEX 00 04:56:62
FILE "08 - Russian Roulette.wav" WAVE
INDEX 01 00:00:00
TRACK 09 AUDIO
TITLE "Surge"
PERFORMER "Sorgen, Robertson, Rust"
INDEX 00 02:48:25
FILE "09 - Surge.wav" WAVE
INDEX 01 00:00:00
TRACK 10 AUDIO
TITLE "TRILO 6"
PERFORMER "Sorgen, Robertson, Rust"
INDEX 00 07:31:07
FILE "10 - TRILO 6.wav" WAVE
INDEX 01 00:00:00
TRACK 11 AUDIO
TITLE "Barron Barracuda"
PERFORMER "Sorgen, Robertson, Rust"
INDEX 00 06:45:52
FILE "11 - Barron Barracuda.wav" WAVE
INDEX 01 00:00:00
TRACK 12 AUDIO
TITLE "Heliopolis"
PERFORMER "Sorgen, Robertson, Rust"
INDEX 00 05:29:16
FILE "12 - Heliopolis.wav" WAVE
INDEX 01 00:00:00
TRACK 13 AUDIO
TITLE "The Dragons Lair"
PERFORMER "Sorgen, Robertson, Rust"
INDEX 00 02:59:28
FILE "13 - The Dragons Lair.wav" WAVE
INDEX 01 00:00:00
По всем вопросам пишите личное сообщение пользователю M0p94ok.
04:29
194
Нет комментариев. Ваш будет первым!