Вы используете незарегистрированную версию компонента "Вкладки"!

Поиск

(Avant-Garde Jazz, Post-Bop) [CD] Eric Dolphy Quintet - Outward Bound (1960) - 2006 {Prestige RVG Remasters}, FLAC (tracks+.cue), lossless

(Avant-Garde Jazz, Post-Bop) [CD] Eric Dolphy Quintet - Outward Bound (1960) - 2006 {Prestige RVG Remasters}, FLAC (tracks+.cue), lossless
Треклист:
Eric Dolphy Quintet - Outward Bound (1960)
Жанр: Avant-Garde Jazz, Post-Bop
Носитель: CD
Год издания: 2006
Издатель (лейбл): Concord/Prestige/New Jazz
Номер по каталогу: 0888072300835
Аудиокодек: FLAC (*.flac)
Тип рипа: tracks+.cue
Битрейт аудио: lossless
Продолжительность: 61:30
Rip by ruskaval
Наличие сканов в содержимом раздачи: да
Треклист:
01. G.W. (7:59)
02. On Green Dolphin Street (5:46)
03. Les (5:14)
04. 245 (6:51)
05. Glad To Be Unhappy (5:29)
06. Miss Toni (5:42)
07. April Fool (bonus track) (4:11)
08. G.W. (alternate take 1) (bonus track) (12:09)
09. 245 (alternate take 1) (bonus track) (8:09)
Personnel:
Eric Dolphy - as, bcl, fl
Freddie Hubbard - tp
Jackie Byard - p
Geroge Tucker - b
Roy Haynes - d
Rec.: Van Gelder Studio, Englewood Cliffs, NJ, April 1, 1960.
 
 
Лог создания рипа
Exact Audio Copy V1.0 beta 3 from 29. August 2011
EAC extraction logfile from 9. September 2014, 18:56
Eric Dolphy Quintet / Outward Bound
Used drive : TSSTcorpCDDVDW SE-208DB Adapter: 7 ID: 0
Read mode : Secure
Utilize accurate stream : Yes
Defeat audio cache : Yes
Make use of C2 pointers : No
Read offset correction : 6
Overread into Lead-In and Lead-Out : No
Fill up missing offset samples with silence : Yes
Delete leading and trailing silent blocks : No
Null samples used in CRC calculations : Yes
Used interface : Native Win32 interface for Win NT & 2000
Gap handling : Appended to previous track
Used output format : User Defined Encoder
Selected bitrate : 1024 kBit/s
Quality : High
Add ID3 tag : No
Command line compressor : C:\Program Files (x86)\FLAC Frontend\tools\flac.exe
Additional command line options : -8 -V -T "ARTIST=%artist%" -T "TITLE=%title%" -T "ALBUM=%albumtitle%" -T "DATE=%year%" -T "TRACKNUMBER=%tracknr%" -T "TOTALTRACKS=%numtracks%" -T "GENRE=%genre%" -T "ALBUMARTIST=%albumartist%" -T "ALBUM ARTIST=%albumartist%" -T "COMMENT=EAC Secure Mode, Test & Copy, AccurateRip, FLAC -8" %source%
TOC of the extracted CD
Track | Start | Length | Start sector | End sector
---------------------------------------------------------
1 | 0:00.00 | 7:59.27 | 0 | 35951
2 | 7:59.27 | 5:45.60 | 35952 | 61886
3 | 13:45.12 | 5:14.30 | 61887 | 85466
4 | 18:59.42 | 6:51.21 | 85467 | 116312
5 | 25:50.63 | 5:28.38 | 116313 | 140950
6 | 31:19.26 | 5:41.64 | 140951 | 166589
7 | 37:01.15 | 4:10.54 | 166590 | 185393
8 | 41:11.69 | 12:09.22 | 185394 | 240090
9 | 53:21.16 | 8:09.14 | 240091 | 276779
Track 1
Filename C:\Eric Dolphy Quintet - Outward Bound (1960) {2006 Prestige RVG Remasters Series}\01 - G.W..wav
Pre-gap length 0:00:02.00
Peak level 97.9 %
Extraction speed 2.7 X
Track quality 99.9 %
Test CRC 779F1BE4
Copy CRC 779F1BE4
Accurately ripped (confidence 10) [52A1C193] (AR v2)
Copy OK
Track 2
Filename C:\Eric Dolphy Quintet - Outward Bound (1960) {2006 Prestige RVG Remasters Series}\02 - On Green Dolphin Street.wav
Pre-gap length 0:00:01.57
Peak level 97.9 %
Extraction speed 3.4 X
Track quality 100.0 %
Test CRC B6592117
Copy CRC B6592117
Accurately ripped (confidence 10) [66C6F45A] (AR v2)
Copy OK
Track 3
Filename C:\Eric Dolphy Quintet - Outward Bound (1960) {2006 Prestige RVG Remasters Series}\03 - Les.wav
Pre-gap length 0:00:02.59
Peak level 97.9 %
Extraction speed 3.1 X
Track quality 99.9 %
Test CRC E7B3341C
Copy CRC E7B3341C
Accurately ripped (confidence 10) [1F3A6D32] (AR v2)
Copy OK
Track 4
Filename C:\Eric Dolphy Quintet - Outward Bound (1960) {2006 Prestige RVG Remasters Series}\04 - 245.wav
Pre-gap length 0:00:03.11
Peak level 97.9 %
Extraction speed 4.1 X
Track quality 100.0 %
Test CRC AE8D47C5
Copy CRC AE8D47C5
Accurately ripped (confidence 10) [DDAECF28] (AR v2)
Copy OK
Track 5
Filename C:\Eric Dolphy Quintet - Outward Bound (1960) {2006 Prestige RVG Remasters Series}\05 - Glad To Be Unhappy.wav
Pre-gap length 0:00:03.09
Peak level 81.9 %
Extraction speed 4.3 X
Track quality 100.0 %
Test CRC E0CBB0A7
Copy CRC E0CBB0A7
Accurately ripped (confidence 10) [43C698AA] (AR v2)
Copy OK
Track 6
Filename C:\Eric Dolphy Quintet - Outward Bound (1960) {2006 Prestige RVG Remasters Series}\06 - Miss Toni.wav
Pre-gap length 0:00:03.40
Peak level 97.9 %
Extraction speed 4.6 X
Track quality 100.0 %
Test CRC 3B82C3EA
Copy CRC 3B82C3EA
Accurately ripped (confidence 10) [6E1746B0] (AR v2)
Copy OK
Track 7
Filename C:\Eric Dolphy Quintet - Outward Bound (1960) {2006 Prestige RVG Remasters Series}\07 - April Fool (bonus track).wav
Pre-gap length 0:00:03.41
Peak level 97.6 %
Extraction speed 4.7 X
Track quality 100.0 %
Test CRC D0FEE830
Copy CRC D0FEE830
Accurately ripped (confidence 10) [35974F9D] (AR v2)
Copy OK
Track 8
Filename C:\Eric Dolphy Quintet - Outward Bound (1960) {2006 Prestige RVG Remasters Series}\08 - G.W. (alternate take 1) (bonus track).wav
Pre-gap length 0:00:02.33
Peak level 97.9 %
Extraction speed 5.4 X
Track quality 100.0 %
Test CRC 24996228
Copy CRC 24996228
Accurately ripped (confidence 10) [4C2069F7] (AR v2)
Copy OK
Track 9
Filename C:\Eric Dolphy Quintet - Outward Bound (1960) {2006 Prestige RVG Remasters Series}\09 - 245 (alternate take 1) (bonus track).wav
Pre-gap length 0:00:02.57
Peak level 97.9 %
Extraction speed 5.7 X
Track quality 100.0 %
Test CRC 433994C6
Copy CRC 433994C6
Accurately ripped (confidence 10) [751D40A8] (AR v2)
Copy OK
All tracks accurately ripped
No errors occurred
End of status report
==== Log checksum 289CE8D485B91BAA05896E0F902EF86632AA18AE045F49128C3C4E4F4D62D02E ====
 
Содержание индексной карты (.CUE)
REM GENRE Jazz
REM DATE 1960
REM DISCID 670E6A09
REM COMMENT "ExactAudioCopy v1.0b3"
PERFORMER "Eric Dolphy Quintet"
TITLE "Outward Bound"
FILE "01 - G.W..wav" WAVE
TRACK 01 AUDIO
TITLE "G.W."
PERFORMER "Eric Dolphy Quintet"
INDEX 01 00:00:00
TRACK 02 AUDIO
TITLE "On Green Dolphin Street"
PERFORMER "Eric Dolphy Quintet"
INDEX 00 07:57:45
FILE "02 - On Green Dolphin Street.wav" WAVE
INDEX 01 00:00:00
TRACK 03 AUDIO
TITLE "Les"
PERFORMER "Eric Dolphy Quintet"
INDEX 00 05:43:01
FILE "03 - Les.wav" WAVE
INDEX 01 00:00:00
TRACK 04 AUDIO
TITLE "245"
PERFORMER "Eric Dolphy Quintet"
INDEX 00 05:11:19
FILE "04 - 245.wav" WAVE
INDEX 01 00:00:00
TRACK 05 AUDIO
TITLE "Glad To Be Unhappy"
PERFORMER "Eric Dolphy Quintet"
INDEX 00 06:48:12
FILE "05 - Glad To Be Unhappy.wav" WAVE
INDEX 01 00:00:00
TRACK 06 AUDIO
TITLE "Miss Toni"
PERFORMER "Eric Dolphy Quintet"
INDEX 00 05:24:73
FILE "06 - Miss Toni.wav" WAVE
INDEX 01 00:00:00
TRACK 07 AUDIO
TITLE "April Fool (bonus track)"
PERFORMER "Eric Dolphy Quintet"
INDEX 00 05:38:23
FILE "07 - April Fool (bonus track).wav" WAVE
INDEX 01 00:00:00
TRACK 08 AUDIO
TITLE "G.W. (alternate take 1) (bonus track)"
PERFORMER "Eric Dolphy Quintet"
INDEX 00 04:08:21
FILE "08 - G.W. (alternate take 1) (bonus track).wav" WAVE
INDEX 01 00:00:00
TRACK 09 AUDIO
TITLE "245 (alternate take 1) (bonus track)"
PERFORMER "Eric Dolphy Quintet"
INDEX 00 12:06:40
FILE "09 - 245 (alternate take 1) (bonus track).wav" WAVE
INDEX 01 00:00:00
По всем вопросам пишите личное сообщение пользователю M0p94ok.
04:29
148
Нет комментариев. Ваш будет первым!