Вы используете незарегистрированную версию компонента "Вкладки"!

Поиск

(Avant-Garde, Experimental) [CD] Battle Trance (Travis Laplante, Matthew Nelson, Jeremy Viner, Patrick Breiner) - Palace of Wind - 2014, FLAC (tracks+.cue), lossless

(Avant-Garde, Experimental) [CD] Battle Trance (Travis Laplante, Matthew Nelson, Jeremy Viner, Patrick Breiner) - Palace of Wind - 2014, FLAC (tracks+.cue), lossless
Треклист:
Battle Trance / Palace of Wind
Жанр: Avant-Garde, Experimental
Носитель: CD
Страна-производитель диска: U.S.A.
Год издания: 2014
Издатель (лейбл): New Amsterdam Records
Номер по каталогу: NWAM058
Аудиокодек: FLAC (*.flac)
Тип рипа: tracks+.cue
Битрейт аудио: lossless
Продолжительность: 42:58
Источник (релизер): я
Наличие сканов в содержимом раздачи: да
Треклист:
1. Palace of Wind I (13:51)
2. Palace of Wind II (10:10)
3. Palace of Wind III (18:57)
Composed by Travis Laplante.
Recorded in one take on the 17th of June, 2013 at Systems Two Studios in Brooklyn, NY.
Travis Laplante – Tenor Saxophone
Matthew Nelson – Tenor Saxophone
Jeremy Viner – Tenor Saxophone
Patrick Breiner – Tenor Saxophone
 
Лог создания рипа
Exact Audio Copy V1.0 beta 3 from 29. August 2011
EAC extraction logfile from 11. September 2014, 21:23
Battle Trance / Palace of Wind
Used drive : SlimtypeeNAU508 5 Adapter: 1 ID: 0
Read mode : Secure
Utilize accurate stream : Yes
Defeat audio cache : Yes
Make use of C2 pointers : No
Read offset correction : 6
Overread into Lead-In and Lead-Out : No
Fill up missing offset samples with silence : Yes
Delete leading and trailing silent blocks : No
Null samples used in CRC calculations : Yes
Used interface : Native Win32 interface for Win NT & 2000
Gap handling : Appended to previous track
Used output format : User Defined Encoder
Selected bitrate : 768 kBit/s
Quality : High
Add ID3 tag : No
Command line compressor : C:\Program Files (x86)\Exact Audio Copy\Flac\flac.exe
Additional command line options : -8 -V -T "ARTIST=%artist%" -T "TITLE=%title%" -T "ALBUM=%albumtitle%" -T "DATE=%year%" -T "TRACKNUMBER=%tracknr%" -T "TOTALTRACKS=%numtracks%" -T "GENRE=%genre%" -T "ALBUMARTIST=%albumartist%" -T "ALBUM ARTIST=%albumartist%" -T "COMMENT=EAC Secure Mode, Test & Copy, AccurateRip, FLAC -8" %source%
TOC of the extracted CD
Track | Start | Length | Start sector | End sector
---------------------------------------------------------
1 | 0:00.00 | 13:50.47 | 0 | 62296
2 | 13:50.47 | 10:10.34 | 62297 | 108080
3 | 24:01.06 | 18:56.56 | 108081 | 193336
Track 1
Filename C:\EAC rips\01 - Palace of Wind I.wav
Pre-gap length 0:00:02.00
Peak level 98.8 %
Extraction speed 2.6 X
Track quality 99.9 %
Test CRC 74DFAEF9
Copy CRC 74DFAEF9
Track not present in AccurateRip database
Copy OK
Track 2
Filename C:\EAC rips\02 - Palace of Wind II.wav
Peak level 98.8 %
Extraction speed 3.4 X
Track quality 100.0 %
Test CRC CA8D4E56
Copy CRC CA8D4E56
Track not present in AccurateRip database
Copy OK
Track 3
Filename C:\EAC rips\03 - Palace of Wind III.wav
Peak level 98.8 %
Extraction speed 3.9 X
Track quality 99.9 %
Test CRC 9954D20A
Copy CRC 9954D20A
Track not present in AccurateRip database
Copy OK
None of the tracks are present in the AccurateRip database
No errors occurred
End of status report
---- CUETools DB Plugin V2.1.4
[CTDB TOCID: kQVqBlPuRlqRkehoCNWSo4EE9jI-] disk not present in database
Submit result: kQVqBlPuRlqRkehoCNWSo4EE9jI- has been uploaded
==== Log checksum A3ECCC35E1FA97E78ED9C449A6D84622984E892FA971D6705AC9572D24C7D060 ====
 
Содержание индексной карты (.CUE)
REM GENRE Jazz
REM DATE 2014
REM DISCID 1B0A1103
REM COMMENT "ExactAudioCopy v1.0b3"
PERFORMER "Battle Trance"
TITLE "Palace of Wind"
FILE "01 - Palace of Wind I.wav" WAVE
TRACK 01 AUDIO
TITLE "Palace of Wind I"
PERFORMER "Battle Trance"
INDEX 01 00:00:00
FILE "02 - Palace of Wind II.wav" WAVE
TRACK 02 AUDIO
TITLE "Palace of Wind II"
PERFORMER "Battle Trance"
INDEX 01 00:00:00
FILE "03 - Palace of Wind III.wav" WAVE
TRACK 03 AUDIO
TITLE "Palace of Wind III"
PERFORMER "Battle Trance"
INDEX 01 00:00:00
По всем вопросам пишите личное сообщение пользователю M0p94ok.
04:31
187
Нет комментариев. Ваш будет первым!