Поиск

(Free Jazz) [CD] Ornette Coleman - New York Is Now! Vol. 1 (1968) - 2014 {Japan SHM-CD Blue Note 24-192 Remaster}, FLAC (tracks+.cue), lossless

(Free Jazz) [CD] Ornette Coleman - New York Is Now! Vol. 1 (1968) - 2014 {Japan SHM-CD Blue Note 24-192 Remaster}, FLAC (tracks+.cue), lossless
Треклист:
Ornette Coleman - New York Is Now! Vol. 1 (1968) Жанр: Free Jazz
Носитель: CD
Страна-производитель диска (релиза): Japan
Год издания: 2014
Издатель (лейбл): Universal Japan/Blue Note
Номер по каталогу: TYCJ-81060
Аудиокодек: FLAC (*.flac)
Тип рипа: tracks+.cue
Битрейт аудио: lossless
Продолжительность: 47:37
Rip by ruskaval
Наличие сканов в содержимом раздачи: да
Треклист:
01. The Garden Of Souls (14:03)
02. Toy Dance (7:30)
03. We Now Interrupt For A Commercial (3:25)
04. Broad Way Blues (8:46)
05. Round Trip (6:19)
06. Broad Way Blues (alt. take) (bonus track) (7:34)
Personnel:
Ornette Coleman - alto sax, violin (3)
Dewey Redman - tenor sax
Jimmy Garrison - bass
Elvin Jones - drums
Mel Fuhrman - announcer (3)
Rec.: A&R Studios, New York City, NY, April 29 and May 7, 1968.
 
 
Лог создания рипа
Exact Audio Copy V1.0 beta 4 from 7. December 2014
EAC extraction logfile from 12. June 2015, 21:10
Ornette Coleman / New York Is Now! Vol. 1
Used drive : ATAPI iHAS124 B Adapter: 1 ID: 0
Read mode : Secure
Utilize accurate stream : Yes
Defeat audio cache : Yes
Make use of C2 pointers : No
Read offset correction : 6
Overread into Lead-In and Lead-Out : No
Fill up missing offset samples with silence : Yes
Delete leading and trailing silent blocks : No
Null samples used in CRC calculations : Yes
Used interface : Native Win32 interface for Win NT & 2000
Gap handling : Appended to previous track
Used output format : User Defined Encoder
Selected bitrate : 1024 kBit/s
Quality : High
Add ID3 tag : No
Command line compressor : C:\Program Files (x86)\FLAC Frontend\tools\flac.exe
Additional command line options : -8 -V -T "ARTIST=%artist%" -T "TITLE=%title%" -T "ALBUM=%albumtitle%" -T "DATE=%year%" -T "TRACKNUMBER=%tracknr%" -T "TOTALTRACKS=%numtracks%" -T "GENRE=%genre%" -T "ALBUMARTIST=%albumartist%" -T "ALBUM ARTIST=%albumartist%" -T "COMMENT=EAC Secure Mode, Test & Copy, AccurateRip, FLAC -8" %source%
TOC of the extracted CD
Track | Start | Length | Start sector | End sector
---------------------------------------------------------
1 | 0:00.00 | 14:02.63 | 0 | 63212
2 | 14:02.63 | 7:29.67 | 63213 | 96954
3 | 21:32.55 | 3:25.00 | 96955 | 112329
4 | 24:57.55 | 8:45.71 | 112330 | 151775
5 | 33:43.51 | 6:19.22 | 151776 | 180222
6 | 40:02.73 | 7:33.68 | 180223 | 214265
Track 1
Filename D:\_EAC\Ornette Coleman - New York Is Now! Vol. 1 (1968) [FLAC] {2014 Japan SHM-CD}\01 - The Garden Of Souls.wav
Pre-gap length 0:00:02.00
Peak level 97.5 %
Extraction speed 4.3 X
Track quality 100.0 %
Test CRC D5B11F33
Copy CRC D5B11F33
Accurately ripped (confidence 1) [16486D05] (AR v2)
Copy OK
Track 2
Filename D:\_EAC\Ornette Coleman - New York Is Now! Vol. 1 (1968) [FLAC] {2014 Japan SHM-CD}\02 - Toy Dance.wav
Pre-gap length 0:00:02.23
Peak level 97.5 %
Extraction speed 5.0 X
Track quality 100.0 %
Test CRC 7DFDF67F
Copy CRC 7DFDF67F
Accurately ripped (confidence 1) [9FF93802] (AR v2)
Copy OK
Track 3
Filename D:\_EAC\Ornette Coleman - New York Is Now! Vol. 1 (1968) [FLAC] {2014 Japan SHM-CD}\03 - We Now Interrupt For A Commercial.wav
Pre-gap length 0:00:02.23
Peak level 89.6 %
Extraction speed 5.0 X
Track quality 100.0 %
Test CRC 6485E195
Copy CRC 6485E195
Accurately ripped (confidence 1) [09360B7F] (AR v2)
Copy OK
Track 4
Filename D:\_EAC\Ornette Coleman - New York Is Now! Vol. 1 (1968) [FLAC] {2014 Japan SHM-CD}\04 - Broad Way Blues.wav
Pre-gap length 0:00:02.23
Peak level 97.1 %
Extraction speed 5.9 X
Track quality 100.0 %
Test CRC 7DB41A90
Copy CRC 7DB41A90
Accurately ripped (confidence 1) [E25FBCA8] (AR v2)
Copy OK
Track 5
Filename D:\_EAC\Ornette Coleman - New York Is Now! Vol. 1 (1968) [FLAC] {2014 Japan SHM-CD}\05 - Round Trip.wav
Pre-gap length 0:00:02.23
Peak level 97.8 %
Extraction speed 6.2 X
Track quality 100.0 %
Test CRC CC0A6C27
Copy CRC CC0A6C27
Accurately ripped (confidence 1) [2C040480] (AR v2)
Copy OK
Track 6
Filename D:\_EAC\Ornette Coleman - New York Is Now! Vol. 1 (1968) [FLAC] {2014 Japan SHM-CD}\06 - Broad Way Blues (alt. take) (bonus track).wav
Pre-gap length 0:00:02.58
Peak level 84.8 %
Extraction speed 6.7 X
Track quality 100.0 %
Test CRC 38E54E0B
Copy CRC 38E54E0B
Accurately ripped (confidence 1) [F4A970F6] (AR v2)
Copy OK
All tracks accurately ripped
No errors occurred
End of status report
==== Log checksum 079D6F05823F9FE6CF322B8034CC694CD8225F1A8ADBB52F600B0269A7A655D0 ====
 
Содержание индексной карты (.CUE)
REM GENRE Jazz
REM DATE 1968
REM DISCID 4C0B2806
REM COMMENT "ExactAudioCopy v1.0b4"
PERFORMER "Ornette Coleman"
TITLE "New York Is Now! Vol. 1"
FILE "01 - The Garden Of Souls.wav" WAVE
TRACK 01 AUDIO
TITLE "The Garden Of Souls"
PERFORMER "Ornette Coleman"
INDEX 01 00:00:00
TRACK 02 AUDIO
TITLE "Toy Dance"
PERFORMER "Ornette Coleman"
INDEX 00 14:00:40
FILE "02 - Toy Dance.wav" WAVE
INDEX 01 00:00:00
TRACK 03 AUDIO
TITLE "We Now Interrupt For A Commercial"
PERFORMER "Ornette Coleman"
INDEX 00 07:27:44
FILE "03 - We Now Interrupt For A Commercial.wav" WAVE
INDEX 01 00:00:00
TRACK 04 AUDIO
TITLE "Broad Way Blues"
PERFORMER "Ornette Coleman"
INDEX 00 03:22:52
FILE "04 - Broad Way Blues.wav" WAVE
INDEX 01 00:00:00
TRACK 05 AUDIO
TITLE "Round Trip"
PERFORMER "Ornette Coleman"
INDEX 00 08:43:48
FILE "05 - Round Trip.wav" WAVE
INDEX 01 00:00:00
TRACK 06 AUDIO
TITLE "Broad Way Blues (alt. take) (bonus track)"
PERFORMER "Ornette Coleman"
INDEX 00 06:16:39
FILE "06 - Broad Way Blues (alt. take) (bonus track).wav" WAVE
INDEX 01 00:00:00
12:53
243
Нет комментариев. Ваш будет первым!