Вы используете незарегистрированную версию компонента "Вкладки"!

Поиск

(Free Jazz) [CD] Ornette Coleman - Change Of The Century (1960) - 1992, FLAC (tracks+.cue), lossless

(Free Jazz) [CD] Ornette Coleman - Change Of The Century (1960) - 1992, FLAC (tracks+.cue), lossless
Треклист:
Ornette Coleman - Change Of The Century (1960)
Жанр: Free Jazz
Носитель: CD
Год издания: 1992
Издатель (лейбл): Atlantic
Номер по каталогу: 81341-2
Аудиокодек: FLAC (*.flac)
Тип рипа: tracks+.cue
Битрейт аудио: lossless
Продолжительность: 41:35
Источник (релизер): What.cd (andipandi)
Наличие сканов в содержимом раздачи: да
Треклист:
01. Ramblin' (6:39)
02. Free (6:24)
03. The Face Of The Bass (7:00)
04. Forerunner (5:17)
05. Bird Food (5:31)
06. Una Muy Bonita (6:02)
07. Change Of The Century (4:41)
Personnel:
Ornette Coleman - as
Don Cherry - tp
Charlie Haden - b
Billy Higgins - d
 
 
Лог создания рипа
Exact Audio Copy V0.99 prebeta 3 from 28. July 2007
EAC extraction logfile from 9. May 2009, 8:58
Ornette Coleman / Change Of The Century
Used drive : HL-DT-STDVD-RAM GSA-H20N Adapter: 3 ID: 0
Read mode : Secure
Utilize accurate stream : Yes
Defeat audio cache : Yes
Make use of C2 pointers : No
Read offset correction : 102
Overread into Lead-In and Lead-Out : No
Fill up missing offset samples with silence : Yes
Delete leading and trailing silent blocks : No
Null samples used in CRC calculations : Yes
Used interface : Installed external ASPI interface
Gap handling : Appended to previous track
Used output format : Internal WAV Routines
Sample format : 44.100 Hz; 16 Bit; Stereo
TOC of the extracted CD
Track | Start | Length | Start sector | End sector
---------------------------------------------------------
1 | 0:00.32 | 6:39.03 | 32 | 29959
2 | 6:39.35 | 6:24.30 | 29960 | 58789
3 | 13:03.65 | 6:59.62 | 58790 | 90276
4 | 20:03.52 | 5:16.38 | 90277 | 114014
5 | 25:20.15 | 5:31.27 | 114015 | 138866
6 | 30:51.42 | 6:02.18 | 138867 | 166034
7 | 36:53.60 | 4:41.15 | 166035 | 187124
Track 1
Filename C:\Documents and Settings\Desktop\EAC\Ornette Coleman\Change Of The Century\01 - Ramblin'.wav
Pre-gap length 0:00:02.32
Peak level 100.0 %
Track quality 100.0 %
Test CRC E723F635
Copy CRC E723F635
Accurately ripped (confidence 3) [5C9C6A79]
Copy OK
Track 2
Filename C:\Documents and Settings\Desktop\EAC\Ornette Coleman\Change Of The Century\02 - Free.wav
Pre-gap length 0:00:03.53
Peak level 97.4 %
Track quality 100.0 %
Test CRC 2A3B8DDD
Copy CRC 2A3B8DDD
Accurately ripped (confidence 3) [EC4A32C6]
Copy OK
Track 3
Filename C:\Documents and Settings\Desktop\EAC\Ornette Coleman\Change Of The Century\03 - The Face Of The Bass.wav
Pre-gap length 0:00:04.45
Peak level 94.4 %
Track quality 100.0 %
Test CRC BA8AB0E6
Copy CRC BA8AB0E6
Accurately ripped (confidence 3) [B300A7E0]
Copy OK
Track 4
Filename C:\Documents and Settings\Desktop\EAC\Ornette Coleman\Change Of The Century\04 - Forerunner.wav
Pre-gap length 0:00:04.32
Peak level 93.9 %
Track quality 100.0 %
Test CRC 1156F16F
Copy CRC 1156F16F
Accurately ripped (confidence 3) [13478859]
Copy OK
Track 5
Filename C:\Documents and Settings\Desktop\EAC\Ornette Coleman\Change Of The Century\05 - Bird Food.wav
Pre-gap length 0:00:02.63
Peak level 100.0 %
Track quality 100.0 %
Test CRC 68A6AAC7
Copy CRC 68A6AAC7
Accurately ripped (confidence 3) [AA6D0FE4]
Copy OK
Track 6
Filename C:\Documents and Settings\Desktop\EAC\Ornette Coleman\Change Of The Century\06 - Una Muy Bonita.wav
Pre-gap length 0:00:03.22
Peak level 87.8 %
Track quality 100.0 %
Test CRC 912C40A9
Copy CRC 912C40A9
Accurately ripped (confidence 3) [6A99A0A8]
Copy OK
Track 7
Filename C:\Documents and Settings\Desktop\EAC\Ornette Coleman\Change Of The Century\07 - Change Of The Century.wav
Pre-gap length 0:00:03.15
Peak level 100.0 %
Track quality 100.0 %
Test CRC 54E3ED33
Copy CRC 54E3ED33
Accurately ripped (confidence 3) [89BA5DCD]
Copy OK
All tracks accurately ripped
No errors occurred
End of status report
 
Содержание индексной карты (.CUE)
REM GENRE Jazz
REM DATE 1960
REM DISCID 4809BF07
REM COMMENT "ExactAudioCopy v0.99pb3"
PERFORMER "Ornette Coleman"
TITLE "Change Of The Century"
FILE "01. Ramblin'.flac" WAVE
TRACK 01 AUDIO
TITLE "Ramblin'"
PERFORMER "Ornette Coleman"
PREGAP 00:00:32
INDEX 01 00:00:00
TRACK 02 AUDIO
TITLE "Free"
PERFORMER "Ornette Coleman"
INDEX 00 06:35:25
FILE "02. Free.flac" WAVE
INDEX 01 00:00:00
TRACK 03 AUDIO
TITLE "The Face Of The Bass"
PERFORMER "Ornette Coleman"
INDEX 00 06:19:60
FILE "03. The Face Of The Bass.flac" WAVE
INDEX 01 00:00:00
TRACK 04 AUDIO
TITLE "Forerunner"
PERFORMER "Ornette Coleman"
INDEX 00 06:55:30
FILE "04. Forerunner.flac" WAVE
INDEX 01 00:00:00
TRACK 05 AUDIO
TITLE "Bird Food"
PERFORMER "Ornette Coleman"
INDEX 00 05:13:50
FILE "05. Bird Food.flac" WAVE
INDEX 01 00:00:00
TRACK 06 AUDIO
TITLE "Una Muy Bonita"
PERFORMER "Ornette Coleman"
INDEX 00 05:28:05
FILE "06. Una Muy Bonita.flac" WAVE
INDEX 01 00:00:00
TRACK 07 AUDIO
TITLE "Change Of The Century"
PERFORMER "Ornette Coleman"
INDEX 00 05:59:03
FILE "07. Change Of The Century.flac" WAVE
INDEX 01 00:00:00
 
CUETools log
[CUETools log; Date: 13.06.2015 12:00:11; Version: 2.0.9]
Pregap length 00:00:32.
[AccurateRip ID: 000bfacd-00471af0-4809bf07] found.
Track [ CRC ] Status
01 [5c9c6a79] (13/46) Accurately ripped
02 [ec4a32c6] (13/47) Accurately ripped
03 [b300a7e0] (12/45) Accurately ripped
04 [13478859] (13/47) Accurately ripped
05 [aa6d0fe4] (13/47) Accurately ripped
06 [6a99a0a8] (13/46) Accurately ripped
07 [89ba5dcd] (12/45) Accurately ripped
Offsetted by 1687:
01 [86d23b65] (08/46) Accurately ripped
02 [454aff2e] (08/47) Accurately ripped
03 [6bc9b188] (08/45) Accurately ripped
04 [117f3804] (08/47) Accurately ripped
05 [f48b552e] (08/47) Accurately ripped
06 [6a99ef43] (08/46) Accurately ripped
07 [a972e07f] (08/45) Accurately ripped
Track Peak [ CRC32 ] [W/O NULL] [ LOG ]
-- 100,0 [DBCF36CB] [9632742C]
01 100,0 [E723F635] [C3CB7261] CRC32
02 97,4 [2A3B8DDD] [CC57B80B] CRC32
03 94,4 [BA8AB0E6] [2053A270] CRC32
04 93,9 [1156F16F] [E4420713] CRC32
05 100,0 [68A6AAC7] [8995C19D] CRC32
06 87,8 [912C40A9] [7EB53F25] CRC32
07 100,0 [54E3ED33] [C55FAD8F] CRC32
По всем вопросам пишите личное сообщение пользователю M0p94ok.
13:54
227
Нет комментариев. Ваш будет первым!