Вы используете незарегистрированную версию компонента "Вкладки"!

Поиск

(free jazz) [cd] Paul Dunmall - Sollo Bagpipes III (FMRCD118-i0603) (2003), FLAC (tracks+.cue), lossless

(free jazz) [cd] Paul Dunmall - Sollo Bagpipes III (FMRCD118-i0603) (2003), FLAC (tracks+.cue), lossless
Треклист:
(free jazz) [cd] Paul Dunmall - Sollo Bagpipes III (FMRCD118-i0603) (2003), FLAC (tracks+.cue), lossless


Paul Dunmall - Sollo Bagpipes III (FMRCD118-i0603) (2003)

Жанр:free jazz
Год выпуска: 2003
Издатель (лейбл):FMR Records (2)/FMRCD118-i0603
Формат: FLAC (tracks+.cue)
Битрейт аудио: lossless
Продолжительность 51`14
Источник: what.cd

tracks
1 Iredel 6:22
2 Chantanopop 9:39
3 Gielgara 6:46
4 Shawbaccandsied 2:55
5 SamaliDradon 8:11
6 Bygandron 17:20


 
.log
X Lossless Decoder version 20141129 (148.1)
XLD extraction logfile from 2015-05-30 18:24:18 +0100
Paul Dunmall / Sollo Bagpipes III (FMRCD118-i0603)
Used drive : TSSTcorp CDDVDW SE-208AB (revision TS00)
Media type : Pressed CD
Ripper mode : XLD Secure Ripper
Disable audio cache : OK for the drive with a cache less than 1375KiB
Make use of C2 pointers : NO
Read offset correction : 6
Max retry count : 20
Gap status : Analyzed, Appended (except HTOA)
TOC of the extracted CD
Track | Start | Length | Start sector | End sector
---------------------------------------------------------
1 | 00:00:00 | 06:21:66 | 0 | 28640
2 | 06:21:66 | 09:39:10 | 28641 | 72075
3 | 16:01:01 | 06:46:28 | 72076 | 102553
4 | 22:47:29 | 02:55:01 | 102554 | 115679
5 | 25:42:30 | 08:11:22 | 115680 | 152526
6 | 33:53:52 | 17:19:73 | 152527 | 230524
AccurateRip Summary
Disc not found in AccurateRip DB.
All Tracks
Album gain : -5.10 dB
Peak : 1.000000
Statistics
Read error : 0
Jitter error (maybe fixed) : 0
Retry sector count : 0
Damaged sector count : 0
Track 01
Filename : /Users/slona/Music/XLD/Paul Dunmall - Sollo Bagpipes III (FMRCD118-i0603) (2003) [FLAC]/01 Iredel.flac
/Users/slona/Music/XLD/Paul Dunmall - Sollo Bagpipes III (FMRCD118-i0603) (2003) [LAME MP3 (CBR 320kbps)]/01 Iredel.mp3
Pre-gap length : 00:02:00
Track gain : -5.74 dB
Peak : 0.918701
CRC32 hash (test run) : EA015BD4
CRC32 hash : EA015BD4
CRC32 hash (skip zero) : 919903D1
AccurateRip v1 signature : 15B33A37
AccurateRip v2 signature : C1E49B60
->Track not present in AccurateRip database.
Statistics
Read error : 0
Jitter error (maybe fixed) : 0
Retry sector count : 0
Damaged sector count : 0
Track 02
Filename : /Users/slona/Music/XLD/Paul Dunmall - Sollo Bagpipes III (FMRCD118-i0603) (2003) [FLAC]/02 Chantanopop.flac
/Users/slona/Music/XLD/Paul Dunmall - Sollo Bagpipes III (FMRCD118-i0603) (2003) [LAME MP3 (CBR 320kbps)]/02 Chantanopop.mp3
Pre-gap length : 00:04:00
Track gain : -6.37 dB
Peak : 1.000000
CRC32 hash (test run) : 156FCFA6
CRC32 hash : 156FCFA6
CRC32 hash (skip zero) : 434435F5
AccurateRip v1 signature : F305B25D
AccurateRip v2 signature : 7F94C7EA
->Track not present in AccurateRip database.
Statistics
Read error : 0
Jitter error (maybe fixed) : 0
Retry sector count : 0
Damaged sector count : 0
Track 03
Filename : /Users/slona/Music/XLD/Paul Dunmall - Sollo Bagpipes III (FMRCD118-i0603) (2003) [FLAC]/03 Gielgara.flac
/Users/slona/Music/XLD/Paul Dunmall - Sollo Bagpipes III (FMRCD118-i0603) (2003) [LAME MP3 (CBR 320kbps)]/03 Gielgara.mp3
Pre-gap length : 00:04:00
Track gain : -1.35 dB
Peak : 0.707550
CRC32 hash (test run) : E7BB2FDF
CRC32 hash : E7BB2FDF
CRC32 hash (skip zero) : 80C0E468
AccurateRip v1 signature : 75A1659E
AccurateRip v2 signature : EADEDF75
->Track not present in AccurateRip database.
Statistics
Read error : 0
Jitter error (maybe fixed) : 0
Retry sector count : 0
Damaged sector count : 0
Track 04
Filename : /Users/slona/Music/XLD/Paul Dunmall - Sollo Bagpipes III (FMRCD118-i0603) (2003) [FLAC]/04 Shawbaccandsied.flac
/Users/slona/Music/XLD/Paul Dunmall - Sollo Bagpipes III (FMRCD118-i0603) (2003) [LAME MP3 (CBR 320kbps)]/04 Shawbaccandsied.mp3
Pre-gap length : 00:04:00
Track gain : -2.45 dB
Peak : 0.646881
CRC32 hash (test run) : FE0B55C2
CRC32 hash : FE0B55C2
CRC32 hash (skip zero) : 81303AFD
AccurateRip v1 signature : AC54C4F3
AccurateRip v2 signature : ADD96A1D
->Track not present in AccurateRip database.
Statistics
Read error : 0
Jitter error (maybe fixed) : 0
Retry sector count : 0
Damaged sector count : 0
Track 05
Filename : /Users/slona/Music/XLD/Paul Dunmall - Sollo Bagpipes III (FMRCD118-i0603) (2003) [FLAC]/05 SamaliDradon.flac
/Users/slona/Music/XLD/Paul Dunmall - Sollo Bagpipes III (FMRCD118-i0603) (2003) [LAME MP3 (CBR 320kbps)]/05 SamaliDradon.mp3
Pre-gap length : 00:04:00
Track gain : -5.16 dB
Peak : 0.872681
CRC32 hash (test run) : 5D460812
CRC32 hash : 5D460812
CRC32 hash (skip zero) : 4BDE5F96
AccurateRip v1 signature : B44B35CB
AccurateRip v2 signature : 464E9867
->Track not present in AccurateRip database.
Statistics
Read error : 0
Jitter error (maybe fixed) : 0
Retry sector count : 0
Damaged sector count : 0
Track 06
Filename : /Users/slona/Music/XLD/Paul Dunmall - Sollo Bagpipes III (FMRCD118-i0603) (2003) [FLAC]/06 Bygondron.flac
/Users/slona/Music/XLD/Paul Dunmall - Sollo Bagpipes III (FMRCD118-i0603) (2003) [LAME MP3 (CBR 320kbps)]/06 Bygondron.mp3
Pre-gap length : 00:04:00
Track gain : -4.13 dB
Peak : 0.882843
CRC32 hash (test run) : 39957043
CRC32 hash : 39957043
CRC32 hash (skip zero) : 5DE2A3CA
AccurateRip v1 signature : 7ECCFA3C
AccurateRip v2 signature : 45C25E17
->Track not present in AccurateRip database.
Statistics
Read error : 0
Jitter error (maybe fixed) : 0
Retry sector count : 0
Damaged sector count : 0
No errors occurred
End of status report
-----BEGIN XLD SIGNATURE-----
3.Xlk43AMMQjR4J4EwxCJmhHmGTTCRyR256aneEqjpZiAVNOfSK6iDIhyxZLJvX8AqN0NgJaOH._Vm71Tr8MRWtc.AuNa3IEzwtauxy
-----END XLD SIGNATURE-----
 
.cue
TITLE "Sollo Bagpipes III (FMRCD118-i0603)"
PERFORMER "Paul Dunmall"
REM GENRE "Jazz"
REM DATE "2003"
REM DISCID 4D0C0106
REM REPLAYGAIN_ALBUM_GAIN -5.10 dB
REM REPLAYGAIN_ALBUM_PEAK 1.000000
FILE "01 Iredel.flac" WAVE
TRACK 01 AUDIO
TITLE "Iredel"
PERFORMER "Paul Dunmall"
REM REPLAYGAIN_TRACK_GAIN -5.74 dB
REM REPLAYGAIN_TRACK_PEAK 0.918701
INDEX 01 00:00:00
TRACK 02 AUDIO
TITLE "Chantanopop"
PERFORMER "Paul Dunmall"
REM REPLAYGAIN_TRACK_GAIN -6.37 dB
REM REPLAYGAIN_TRACK_PEAK 1.000000
INDEX 00 06:17:66
FILE "02 Chantanopop.flac" WAVE
INDEX 01 00:00:00
TRACK 03 AUDIO
TITLE "Gielgara"
PERFORMER "Paul Dunmall"
REM REPLAYGAIN_TRACK_GAIN -1.35 dB
REM REPLAYGAIN_TRACK_PEAK 0.707550
INDEX 00 09:35:10
FILE "03 Gielgara.flac" WAVE
INDEX 01 00:00:00
TRACK 04 AUDIO
TITLE "Shawbaccandsied"
PERFORMER "Paul Dunmall"
REM REPLAYGAIN_TRACK_GAIN -2.45 dB
REM REPLAYGAIN_TRACK_PEAK 0.646881
INDEX 00 06:42:28
FILE "04 Shawbaccandsied.flac" WAVE
INDEX 01 00:00:00
TRACK 05 AUDIO
TITLE "SamaliDradon"
PERFORMER "Paul Dunmall"
REM REPLAYGAIN_TRACK_GAIN -5.16 dB
REM REPLAYGAIN_TRACK_PEAK 0.872681
INDEX 00 02:51:01
FILE "05 SamaliDradon.flac" WAVE
INDEX 01 00:00:00
TRACK 06 AUDIO
TITLE "Bygondron"
PERFORMER "Paul Dunmall"
REM REPLAYGAIN_TRACK_GAIN -4.13 dB
REM REPLAYGAIN_TRACK_PEAK 0.882843
INDEX 00 08:07:22
FILE "06 Bygondron.flac" WAVE
INDEX 01 00:00:00

http://www.discogs.com/Paul-Dunmall-Shawbaccandsied-Solo-Bagpipes/release/2779203
Paul Dunmall - Solo Bagpipes 1999 & Solo Bagpipes II 2001
другие релизы
По всем вопросам пишите личное сообщение пользователю M0p94ok.
13:52
163
Нет комментариев. Ваш будет первым!