Вы используете незарегистрированную версию компонента "Вкладки"!

Поиск

(Free Jazz) [CD] Ornette Coleman - Languages: Milano, February 5, 1968 - 1993, FLAC (tracks+.cue), lossless

(Free Jazz) [CD] Ornette Coleman - Languages: Milano, February 5, 1968 - 1993, FLAC (tracks+.cue), lossless
Треклист:
Ornette Coleman - Languages: Milano, February 5, 1968
Жанр: Free Jazz
Носитель: CD
Год издания: 1993
Издатель (лейбл): Moon Records
Номер по каталогу: MCD0442
Аудиокодек: FLAC (*.flac)
Тип рипа: tracks+.cue
Битрейт аудио: lossless
Продолжительность: 55:43
Rip by LolaMontes
Наличие сканов в содержимом раздачи: да
Треклист:
01. Tutti (23:02)
02. Three Wise Men And The Saint (13:49)
03. New York (18:52)
Personnel:
Ornette Coleman - alto sax
Charlie Haden - bass
David Izenzon- bass
Ed Blackwell - drums
Recorded live in Milano at Teatro Lirico, February 5, 1968
 
 
Лог создания рипа
Exact Audio Copy V1.0 beta 4 from 7. December 2014
EAC extraction logfile from 11. June 2015, 18:29
Ornette Coleman / Languages - Milano, February 5, 1968
Used drive : HL-DT-STDVD+-RW GH82N Adapter: 1 ID: 0
Read mode : Secure
Utilize accurate stream : Yes
Defeat audio cache : Yes
Make use of C2 pointers : No
Read offset correction : 667
Overread into Lead-In and Lead-Out : No
Fill up missing offset samples with silence : Yes
Delete leading and trailing silent blocks : No
Null samples used in CRC calculations : Yes
Used interface : Native Win32 interface for Win NT & 2000
Gap handling : Appended to previous track
Used output format : User Defined Encoder
Selected bitrate : 1024 kBit/s
Quality : High
Add ID3 tag : No
Command line compressor : C:\Program Files (x86)\Exact Audio Copy\FLAC\FLAC.EXE
Additional command line options : -6 -V -T "ARTIST=%artist%" -T "TITLE=%title%" -T "ALBUM=%albumtitle%" -T "DATE=%year%" -T "TRACKNUMBER=%tracknr%" -T "GENRE=%genre%" -T "COMMENT=%comment%" -T "BAND=%albuminterpret%" -T "ALBUMARTIST=%albuminterpret%" -T "COMPOSER=%composer%" %haslyrics%--tag-from-file=LYRICS="%lyricsfile%"%haslyrics% -T "DISCNUMBER=%cdnumber%" -T "TOTALDISCS=%totalcds%" -T "TOTALTRACKS=%numtracks%" %hascover%--picture="%coverfile%"%hascover% %source% -o %dest%
TOC of the extracted CD
Track | Start | Length | Start sector | End sector
---------------------------------------------------------
1 | 0:00.33 | 23:02.35 | 33 | 103717
2 | 23:02.68 | 13:48.65 | 103718 | 165882
3 | 36:51.58 | 18:51.50 | 165883 | 250757
Track 1
Filename C:\Rips\Ornette Coleman - Languages - Milano, February 5, 1968\01 - Tutti.wav
Pre-gap length 0:00:02.33
Peak level 99.8 %
Extraction speed 2.6 X
Track quality 100.0 %
Copy CRC 92A8AAB1
Accurately ripped (confidence 2) [30B7ACD6] (AR v1)
Copy OK
Track 2
Filename C:\Rips\Ornette Coleman - Languages - Milano, February 5, 1968\02 - Three Wise Men And The Saint.wav
Peak level 69.1 %
Extraction speed 3.4 X
Track quality 100.0 %
Copy CRC 654A305B
Accurately ripped (confidence 3) [68CDA7F6] (AR v1)
Copy OK
Track 3
Filename C:\Rips\Ornette Coleman - Languages - Milano, February 5, 1968\03 - New York.wav
Peak level 94.4 %
Extraction speed 4.0 X
Track quality 100.0 %
Copy CRC 4F8611FB
Accurately ripped (confidence 3) [A4751159] (AR v1)
Copy OK
All tracks accurately ripped
No errors occurred
End of status report
---- CUETools DB Plugin V2.1.4
[CTDB TOCID: FuRiFIbNTlVvkVyVyNYF3ZYJEas-] disk not present in database
Submit result: The request was aborted: The request was canceled.
==== Log checksum 199590FE9C0BFF939E24C2631D6B94915C79D0840DF786A576B73B627F7CBED7 ====
 
Содержание индексной карты (.CUE)
REM GENRE Jazz
REM DATE 1968
REM DISCID 1A0D0F03
REM COMMENT "ExactAudioCopy v1.0b4"
PERFORMER "Ornette Coleman"
TITLE "Languages - Milano, February 5, 1968"
FILE "01. Tutti.flac" WAVE
TRACK 01 AUDIO
TITLE "Tutti"
PERFORMER "Ornette Coleman"
PREGAP 00:00:33
INDEX 01 00:00:00
FILE "02. Three Wise Men And The Saint.flac" WAVE
TRACK 02 AUDIO
TITLE "Three Wise Men And The Saint"
PERFORMER "Ornette Coleman"
INDEX 01 00:00:00
FILE "03. New York.flac" WAVE
TRACK 03 AUDIO
TITLE "New York"
PERFORMER "Ornette Coleman"
INDEX 01 00:00:00
По всем вопросам пишите личное сообщение пользователю M0p94ok.
13:49
183
Нет комментариев. Ваш будет первым!