Вы используете незарегистрированную версию компонента "Вкладки"!

Поиск

(Modern Jazz, Free Improvisation) [CD] Tom Trio (Tomasz Dabrowski, Nils Bo Davidsen, Anders Mogensen) - Radical Moves - 2014, FLAC (tracks+.cue), lossless

(Modern Jazz, Free Improvisation) [CD] Tom Trio (Tomasz Dabrowski, Nils Bo Davidsen, Anders Mogensen) - Radical Moves - 2014, FLAC (tracks+.cue), lossless
Треклист:
Tom Trio / Radical Moves
Жанр: Modern Jazz, Free Improvisation
Носитель: CD
Страна-производитель диска (релиза): Poland
Год издания: 2014
Издатель (лейбл): For Tune
Номер по каталогу: 0045 032
Аудиокодек: FLAC (*.flac)
Тип рипа: tracks+.cue
Битрейт аудио: lossless
Продолжительность: 42:17
Источник (релизер): я
Наличие сканов в содержимом раздачи: да
Треклист:
1. Mornings 5:41
2. Sydhavn 4:41
3. Clocks 4:25
4. Double Booking 4:05
5. Adult Things 4:44
6. No Loitering Please 4:09
7. For the Little One 3:04
8. Radical Moves 3:05
9. Let’s Dance 4:24
10. Pardon To Tu 3:59
All tunes composed by Tomasz Dąbrowski.
Recorded at the Studio Tokarnia in Nieporęt (Poland) on October 28, 2013.
Tomasz Dąbrowski – Trumpet, Mutes
Nils Bo Davidsen – Double Bass
Anders Mogensen – Drums
 
Лог создания рипа
Exact Audio Copy V1.0 beta 4 from 7. December 2014
EAC extraction logfile from 3. February 2015, 13:50
Tom Trio / Radical Moves
Used drive : SlimtypeeNAU508 5 Adapter: 1 ID: 1
Read mode : Secure
Utilize accurate stream : Yes
Defeat audio cache : Yes
Make use of C2 pointers : No
Read offset correction : 6
Overread into Lead-In and Lead-Out : No
Fill up missing offset samples with silence : Yes
Delete leading and trailing silent blocks : No
Null samples used in CRC calculations : Yes
Used interface : Native Win32 interface for Win NT & 2000
Gap handling : Appended to previous track
Used output format : User Defined Encoder
Selected bitrate : 896 kBit/s
Quality : High
Add ID3 tag : No
Command line compressor : C:\Program Files (x86)\Exact Audio Copy\Flac\flac.exe
Additional command line options : -8 -V -T "ARTIST=%artist%" -T "TITLE=%title%" -T "ALBUM=%albumtitle%" -T "DATE=%year%" -T "TRACKNUMBER=%tracknr%" -T "TOTALTRACKS=%numtracks%" -T "GENRE=%genre%" -T "ALBUMARTIST=%albumartist%" -T "ALBUM ARTIST=%albumartist%" -T "COMMENT=EAC Secure Mode, Test & Copy, AccurateRip, FLAC -8" %source%
TOC of the extracted CD
Track | Start | Length | Start sector | End sector
---------------------------------------------------------
1 | 0:00.00 | 5:41.00 | 0 | 25574
2 | 5:41.00 | 4:41.00 | 25575 | 46649
3 | 10:22.00 | 4:25.00 | 46650 | 66524
4 | 14:47.00 | 4:05.00 | 66525 | 84899
5 | 18:52.00 | 4:44.00 | 84900 | 106199
6 | 23:36.00 | 4:09.00 | 106200 | 124874
7 | 27:45.00 | 3:04.00 | 124875 | 138674
8 | 30:49.00 | 3:05.00 | 138675 | 152549
9 | 33:54.00 | 4:24.00 | 152550 | 172349
10 | 38:18.00 | 3:59.00 | 172350 | 190274
Track 1
Filename C:\EAC rips\01 - Mornings.wav
Pre-gap length 0:00:02.00
Peak level 94.7 %
Extraction speed 1.1 X
Track quality 100.0 %
Test CRC 240E20C4
Copy CRC 240E20C4
Track not present in AccurateRip database
Copy OK
Track 2
Filename C:\EAC rips\02 - Sydhavn.wav
Peak level 93.5 %
Extraction speed 1.2 X
Track quality 100.0 %
Test CRC 73A97A2E
Copy CRC 73A97A2E
Track not present in AccurateRip database
Copy OK
Track 3
Filename C:\EAC rips\03 - Clocks.wav
Peak level 95.7 %
Extraction speed 1.3 X
Track quality 100.0 %
Test CRC 6EE87F09
Copy CRC 6EE87F09
Track not present in AccurateRip database
Copy OK
Track 4
Filename C:\EAC rips\04 - Double Booking.wav
Peak level 94.1 %
Extraction speed 1.2 X
Track quality 99.9 %
Test CRC 04A7F11C
Copy CRC 04A7F11C
Track not present in AccurateRip database
Copy OK
Track 5
Filename C:\EAC rips\05 - Adult Things.wav
Peak level 92.3 %
Extraction speed 1.5 X
Track quality 100.0 %
Test CRC 9C19EFCB
Copy CRC 9C19EFCB
Track not present in AccurateRip database
Copy OK
Track 6
Filename C:\EAC rips\06 - No Loitering Please.wav
Peak level 94.2 %
Extraction speed 1.4 X
Track quality 99.9 %
Test CRC D608B46D
Copy CRC D608B46D
Track not present in AccurateRip database
Copy OK
Track 7
Filename C:\EAC rips\07 - For the Little One.wav
Peak level 86.6 %
Extraction speed 1.6 X
Track quality 100.0 %
Test CRC 8028F1CC
Copy CRC 8028F1CC
Track not present in AccurateRip database
Copy OK
Track 8
Filename C:\EAC rips\08 - Radical Moves.wav
Peak level 95.3 %
Extraction speed 1.6 X
Track quality 100.0 %
Test CRC DAE138D4
Copy CRC DAE138D4
Track not present in AccurateRip database
Copy OK
Track 9
Filename C:\EAC rips\09 - Let's Dance.wav
Peak level 92.1 %
Extraction speed 1.8 X
Track quality 100.0 %
Test CRC CDEAA840
Copy CRC CDEAA840
Track not present in AccurateRip database
Copy OK
Track 10
Filename C:\EAC rips\10 - Pardon To Tu.wav
Peak level 93.8 %
Extraction speed 1.8 X
Track quality 100.0 %
Test CRC C0859207
Copy CRC C0859207
Track not present in AccurateRip database
Copy OK
None of the tracks are present in the AccurateRip database
No errors occurred
End of status report
---- CUETools DB Plugin V2.1.4
[CTDB TOCID: pZCmrupMO1HYMG5ivq3GUoT5PyE-] disk not present in database
Submit result: pZCmrupMO1HYMG5ivq3GUoT5PyE- has been uploaded
==== Log checksum A7C41FD36C171F5C5043F16C48CFE61E1B86DF959E08730FD9F34C74CAB5C376 ====
 
Содержание индексной карты (.CUE)
REM GENRE "For Tune 0045 032"
REM DATE 2014
REM DISCID 7B09E90A
REM COMMENT "ExactAudioCopy v1.0b4"
PERFORMER "Tom Trio"
TITLE "Radical Moves"
FILE "01 - Mornings.wav" WAVE
TRACK 01 AUDIO
TITLE "Mornings"
PERFORMER "Tom Trio"
ISRC PLH161400384
INDEX 01 00:00:00
FILE "02 - Sydhavn.wav" WAVE
TRACK 02 AUDIO
TITLE "Sydhavn"
PERFORMER "Tom Trio"
ISRC PLH161400385
INDEX 01 00:00:00
FILE "03 - Clocks.wav" WAVE
TRACK 03 AUDIO
TITLE "Clocks"
PERFORMER "Tom Trio"
ISRC PLH161400386
INDEX 01 00:00:00
FILE "04 - Double Booking.wav" WAVE
TRACK 04 AUDIO
TITLE "Double Booking"
PERFORMER "Tom Trio"
ISRC PLH161400387
INDEX 01 00:00:00
FILE "05 - Adult Things.wav" WAVE
TRACK 05 AUDIO
TITLE "Adult Things"
PERFORMER "Tom Trio"
ISRC PLH161400388
INDEX 01 00:00:00
FILE "06 - No Loitering Please.wav" WAVE
TRACK 06 AUDIO
TITLE "No Loitering Please"
PERFORMER "Tom Trio"
ISRC PLH161400389
INDEX 01 00:00:00
FILE "07 - For the Little One.wav" WAVE
TRACK 07 AUDIO
TITLE "For the Little One"
PERFORMER "Tom Trio"
ISRC PLH161400390
INDEX 01 00:00:00
FILE "08 - Radical Moves.wav" WAVE
TRACK 08 AUDIO
TITLE "Radical Moves"
PERFORMER "Tom Trio"
ISRC PLH161400391
INDEX 01 00:00:00
FILE "09 - Let's Dance.wav" WAVE
TRACK 09 AUDIO
TITLE "Let's Dance"
PERFORMER "Tom Trio"
ISRC PLH161400392
INDEX 01 00:00:00
FILE "10 - Pardon To Tu.wav" WAVE
TRACK 10 AUDIO
TITLE "Pardon To Tu"
PERFORMER "Tom Trio"
ISRC PLH161400393
INDEX 01 00:00:00
По всем вопросам пишите личное сообщение пользователю M0p94ok.
13:43
188
Нет комментариев. Ваш будет первым!