Вы используете незарегистрированную версию компонента "Вкладки"!

Поиск

(Avant-Garde, Free Improvisation) [CD] Daniel Erdmann, Gebhard Ullmann, Christian Lillinger, Johannes Fink - E & U Mann - 2014, FLAC (tracks+.cue), lossless

(Avant-Garde, Free Improvisation) [CD] Daniel Erdmann, Gebhard Ullmann, Christian Lillinger, Johannes Fink - E & U Mann - 2014, FLAC (tracks+.cue), lossless
Треклист:
Erdmann, Ullmann, Lillinger, Fink / E & U Mann
Жанр: Avant-Garde, Free Improvisation
Носитель: CD
Страна-производитель диска (релиза): Germany
Год издания: 2014
Издатель (лейбл): WismART
Номер по каталогу: W 102
Аудиокодек: FLAC (*.flac)
Тип рипа: tracks+.cue
Битрейт аудио: lossless
Продолжительность: 50:38
Источник (релизер): я
Наличие сканов в содержимом раздачи: да
Треклист:
1. New York 5:50 (Ullmann) 6:56
2. Kleine Figuren No. 3 (Ullmann) 7:31
3. The Dessert Story (Erdmann) 4:48
4. Estupido Hombre (Erdmann) 6:36
5. U und L (Ullmann / Lillinger) 4:20
6. FUEL (Erdmann / Ullmann / Fink / Lillinger) 3:26
7. Sterbende Nacht (Fink) 4:46
8. Kleine Figuren No. 1 (Ullmann) 6:40
9. Zwei Variationen über das Thema von Johannes Fink (Ullmann) 5:36
Recorded January 12-13, 2011 at Landin, Germany.
Daniel Erdmann – Tenor Saxophone
Gebhard Ullmann – Tenor Saxophone, Bass Clarinet
Johannes Fink – Double Bass
Christian Lillinger – Drums & Percussion
 
Лог создания рипа
Exact Audio Copy V1.0 beta 4 from 7. December 2014
EAC extraction logfile from 7. March 2015, 12:51
Erdmann, Ullmann, Lillinger, Fink / E & U Mann
Used drive : SlimtypeeNAU508 5 Adapter: 1 ID: 1
Read mode : Secure
Utilize accurate stream : Yes
Defeat audio cache : Yes
Make use of C2 pointers : No
Read offset correction : 6
Overread into Lead-In and Lead-Out : No
Fill up missing offset samples with silence : Yes
Delete leading and trailing silent blocks : No
Null samples used in CRC calculations : Yes
Used interface : Native Win32 interface for Win NT & 2000
Gap handling : Appended to previous track
Used output format : User Defined Encoder
Selected bitrate : 896 kBit/s
Quality : High
Add ID3 tag : No
Command line compressor : C:\Program Files (x86)\Exact Audio Copy\Flac\flac.exe
Additional command line options : -8 -V -T "ARTIST=%artist%" -T "TITLE=%title%" -T "ALBUM=%albumtitle%" -T "DATE=%year%" -T "TRACKNUMBER=%tracknr%" -T "TOTALTRACKS=%numtracks%" -T "GENRE=%genre%" -T "ALBUMARTIST=%albumartist%" -T "ALBUM ARTIST=%albumartist%" -T "COMMENT=EAC Secure Mode, Test & Copy, AccurateRip, FLAC -8" %source%
TOC of the extracted CD
Track | Start | Length | Start sector | End sector
---------------------------------------------------------
1 | 0:00.00 | 6:56.29 | 0 | 31228
2 | 6:56.29 | 7:30.57 | 31229 | 65035
3 | 14:27.11 | 4:47.55 | 65036 | 86615
4 | 19:14.66 | 6:36.10 | 86616 | 116325
5 | 25:51.01 | 4:19.51 | 116326 | 135801
6 | 30:10.52 | 3:25.39 | 135802 | 151215
7 | 33:36.16 | 4:46.25 | 151216 | 172690
8 | 38:22.41 | 6:39.46 | 172691 | 202661
9 | 45:02.12 | 5:35.41 | 202662 | 227827
Track 1
Filename C:\EAC rips\01 - New York Five Fifty.wav
Pre-gap length 0:00:02.00
Peak level 99.6 %
Extraction speed 2.3 X
Track quality 100.0 %
Test CRC 612D4E36
Copy CRC 612D4E36
Track not present in AccurateRip database
Copy OK
Track 2
Filename C:\EAC rips\02 - Kleine Figuren No. 3.wav
Peak level 100.0 %
Extraction speed 2.8 X
Track quality 100.0 %
Test CRC 8CD03569
Copy CRC 8CD03569
Track not present in AccurateRip database
Copy OK
Track 3
Filename C:\EAC rips\03 - The Dessert Story.wav
Peak level 95.3 %
Extraction speed 2.9 X
Track quality 100.0 %
Test CRC 822BBA84
Copy CRC 822BBA84
Track not present in AccurateRip database
Copy OK
Track 4
Filename C:\EAC rips\04 - Estupido Hombre.wav
Peak level 98.8 %
Extraction speed 3.3 X
Track quality 100.0 %
Test CRC 5F335229
Copy CRC 5F335229
Track not present in AccurateRip database
Copy OK
Track 5
Filename C:\EAC rips\05 - U und L.wav
Peak level 99.8 %
Extraction speed 3.3 X
Track quality 100.0 %
Test CRC 00858E82
Copy CRC 00858E82
Track not present in AccurateRip database
Copy OK
Track 6
Filename C:\EAC rips\06 - FUEL.wav
Peak level 98.4 %
Extraction speed 2.7 X
Track quality 99.9 %
Test CRC 17385ED9
Copy CRC 17385ED9
Track not present in AccurateRip database
Copy OK
Track 7
Filename C:\EAC rips\07 - Sterbende Nacht.wav
Peak level 97.7 %
Extraction speed 3.7 X
Track quality 100.0 %
Test CRC FB94A58A
Copy CRC FB94A58A
Track not present in AccurateRip database
Copy OK
Track 8
Filename C:\EAC rips\08 - Kleine Figuren No. 1.wav
Peak level 100.0 %
Extraction speed 3.9 X
Track quality 100.0 %
Test CRC 001A51A5
Copy CRC 001A51A5
Track not present in AccurateRip database
Copy OK
Track 9
Filename C:\EAC rips\09 - Zwei Variationen über das Thema von Johannes Fink.wav
Peak level 97.2 %
Extraction speed 4.0 X
Track quality 100.0 %
Test CRC 5BCD2ADA
Copy CRC 5BCD2ADA
Track not present in AccurateRip database
Copy OK
None of the tracks are present in the AccurateRip database
No errors occurred
End of status report
---- CUETools DB Plugin V2.1.4
[CTDB TOCID: EAvWe2W5o8QjqlIDC5PseaS5msk-] disk not present in database
Submit result: EAvWe2W5o8QjqlIDC5PseaS5msk- has been uploaded
==== Log checksum 9DBE66F866E5E90454719A8018BD2A95AEEBD7602A4E59E4433ECA213E336DE6 ====
 
Содержание индексной карты (.CUE)
REM GENRE "WismART W 102"
REM DATE 2014
REM DISCID 6E0BDD09
REM COMMENT "ExactAudioCopy v1.0b4"
PERFORMER "Erdmann, Ullmann, Lillinger, Fink"
TITLE "E & U Mann"
FILE "01 - New York Five Fifty.wav" WAVE
TRACK 01 AUDIO
TITLE "New York 5:50"
PERFORMER "Erdmann, Ullmann, Lillinger, Fink"
ISRC DEAW61200036
INDEX 01 00:00:00
FILE "02 - Kleine Figuren No. 3.wav" WAVE
TRACK 02 AUDIO
TITLE "Kleine Figuren No. 3"
PERFORMER "Erdmann, Ullmann, Lillinger, Fink"
ISRC DEAW61200037
INDEX 01 00:00:00
FILE "03 - The Dessert Story.wav" WAVE
TRACK 03 AUDIO
TITLE "The Dessert Story"
PERFORMER "Erdmann, Ullmann, Lillinger, Fink"
ISRC DEAW61200038
INDEX 01 00:00:00
FILE "04 - Estupido Hombre.wav" WAVE
TRACK 04 AUDIO
TITLE "Estupido Hombre"
PERFORMER "Erdmann, Ullmann, Lillinger, Fink"
ISRC DEAW61200039
INDEX 01 00:00:00
FILE "05 - U und L.wav" WAVE
TRACK 05 AUDIO
TITLE "U und L"
PERFORMER "Erdmann, Ullmann, Lillinger, Fink"
ISRC DEAW61200040
INDEX 01 00:00:00
FILE "06 - FUEL.wav" WAVE
TRACK 06 AUDIO
TITLE "FUEL"
PERFORMER "Erdmann, Ullmann, Lillinger, Fink"
ISRC DEAW61200041
INDEX 01 00:00:00
FILE "07 - Sterbende Nacht.wav" WAVE
TRACK 07 AUDIO
TITLE "Sterbende Nacht"
PERFORMER "Erdmann, Ullmann, Lillinger, Fink"
ISRC DEAW61200042
INDEX 01 00:00:00
FILE "08 - Kleine Figuren No. 1.wav" WAVE
TRACK 08 AUDIO
TITLE "Kleine Figuren No. 1"
PERFORMER "Erdmann, Ullmann, Lillinger, Fink"
ISRC DEAW61200043
INDEX 01 00:00:00
FILE "09 - Zwei Variationen über das Thema von Johannes Fink.wav" WAVE
TRACK 09 AUDIO
TITLE "Zwei Variationen über das Thema von Johannes Fink"
PERFORMER "Erdmann, Ullmann, Lillinger, Fink"
ISRC DEAW61200044
INDEX 01 00:00:00
По всем вопросам пишите личное сообщение пользователю M0p94ok.
13:50
167
Нет комментариев. Ваш будет первым!