Вы используете незарегистрированную версию компонента "Вкладки"!

Поиск

(Free Jazz) [CD] Noah Howard Quartetto (Bob Reid, Noel McGhie, Michael Smith) - Live At The Swing Club Torino Italy - 2014, FLAC (tracks+.cue), lossless

(Free Jazz) [CD] Noah Howard Quartetto (Bob Reid, Noel McGhie, Michael Smith) - Live At The Swing Club Torino Italy - 2014, FLAC (tracks+.cue), lossless
Треклист:
Noah Howard Quartetto / Live At The Swing Club Torino Italy
Жанр: Free Jazz
Носитель: CD
Страна-производитель диска (релиза): Italy
Год издания: 2014
Издатель (лейбл): seriE.WOC
Номер по каталогу: EWOC08CD
Аудиокодек: FLAC (*.flac)
Тип рипа: tracks+.cue
Битрейт аудио: lossless
Продолжительность: 36:12
Источник (релизер): whatcd (wikieup)
Наличие сканов в содержимом раздачи: нет
Треклист:
1. Paris Dreams 12:23
2. Lecke 06:49
3. Mardi Gras 16:59
 
Лог создания рипа
Exact Audio Copy V1.0 beta 3 from 29. August 2011
EAC extraction logfile from 29. September 2014, 13:51
Noah Howard Quartet / Live At The Swing Club [2014 Reissue]
Used drive : TSSTcorpDVD-ROM TS-U333B Adapter: 0 ID: 1
Read mode : Secure
Utilize accurate stream : Yes
Defeat audio cache : Yes
Make use of C2 pointers : No
Read offset correction : 6
Overread into Lead-In and Lead-Out : No
Fill up missing offset samples with silence : Yes
Delete leading and trailing silent blocks : No
Null samples used in CRC calculations : Yes
Used interface : Native Win32 interface for Win NT & 2000
Gap handling : Appended to previous track
Used output format : User Defined Encoder
Selected bitrate : 1024 kBit/s
Quality : High
Add ID3 tag : No
Command line compressor : C:\Program Files\Exact Audio Copy\Flac\flac.exe
Additional command line options : -8 -V -T "ARTIST=%artist%" -T "TITLE=%title%" -T "ALBUM=%albumtitle%" -T "DATE=%year%" -T "TRACKNUMBER=%tracknr%" -T "GENRE=%genre%" -T "PERFORMER=%albuminterpret%" -T "COMPOSER=%composer%" %haslyrics%--tag-from-file=LYRICS="%lyricsfile%"%haslyrics% -T "ALBUMARTIST=%albumartist%" -T "DISCNUMBER=%cdnumber%" -T "TOTALDISCS=%totalcds%" -T "TOTALTRACKS=%numtracks%" -T "COMMENT=%comment%" %source% -o %dest%
TOC of the extracted CD
Track | Start | Length | Start sector | End sector
---------------------------------------------------------
1 | 0:00.00 | 12:23.22 | 0 | 55746
2 | 12:23.22 | 6:49.49 | 55747 | 86470
3 | 19:12.71 | 16:59.36 | 86471 | 162931
Track 1
Filename C:\EAC Rips\01 - Paris Dreams.wav
Pre-gap length 0:00:02.00
Peak level 99.8 %
Extraction speed 1.4 X
Track quality 100.0 %
Test CRC 816F8F5B
Copy CRC 816F8F5B
Track not present in AccurateRip database
Copy OK
Track 2
Filename C:\EAC Rips\02 - Lecke.wav
Peak level 99.8 %
Extraction speed 1.5 X
Track quality 99.9 %
Test CRC 2B3E4E4C
Copy CRC 2B3E4E4C
Track not present in AccurateRip database
Copy OK
Track 3
Filename C:\EAC Rips\03 - Mardi Gras.wav
Peak level 99.8 %
Extraction speed 2.0 X
Track quality 100.0 %
Test CRC 89CC9D9B
Copy CRC 89CC9D9B
Track not present in AccurateRip database
Copy OK
None of the tracks are present in the AccurateRip database
No errors occurred
End of status report
==== Log checksum 08A51F094EF23C12F848C5D15D4889AE42CF7D7251C75302D357CFADC6E5FEAC ====
 
Содержание индексной карты (.CUE)
REM GENRE Jazz
REM DATE 1974
REM DISCID 1D087C03
REM COMMENT "ExactAudioCopy v1.0b3"
FILE "01 - Paris Dreams.wav" WAVE
TRACK 01 AUDIO
INDEX 01 00:00:00
FILE "02 - Lecke.wav" WAVE
TRACK 02 AUDIO
INDEX 01 00:00:00
FILE "03 - Mardi Gras.wav" WAVE
TRACK 03 AUDIO
INDEX 01 00:00:00
Доп. информация: Recorded live on April 20, 1974 at the Swing Club in Torino, Italy
 
Об альбоме (сборнике)
The first thing that attracts the eye is this cover – the Jimi Hendrix posture. Noah Howard, one of the great underestimated figures in free jazz, in concentrated rapture. It’s an iconic picture of him which was also used for his 1979 recording “Ole”, on which he presents a fabulous version of the Coltrane composition. All of Howard’s commitment, his ability to listen, his grandeur is expressed in this picture.
Yet, for mysterious reasons Howard (1943 – 2010) has never received the same attention as – let’s say – Archie Shepp, Joe McPhee or Albert Ayler (by whom he was deeply influenced) although he recorded two great albums on ESP (“Noah Howard Quartet” and “At Judson Hall”, both released in 1966) and even one on a major label, the fantastic “The Black Ark” (Polydor, 1972) and my two favorites, “Berlin Concert” and “Schizophrenic Blues” (both on FMP/SAJ), which he recorded after he had moved to Europe. It was in April 1974 when he recorded “Live at the Swing Club Torino, Italy”. The session features Howard (alto sax, bells, tambourine) alongside Michael Smith (electric piano, acoustic piano), Bob Raid (bass) and Noel McGhie (drums). The album was out of print for a very long time and has now been re-released, which is a real moment of happiness for all free jazz fans.
The reason is the wonderful music which is presented on this album. Howard is a true Coltrane disciple and you can hear that in every tone of his alto. From the very first note on the opening track Paris Dreams it is all there: the piano arpeggios, the driving drums and the pulsating bass and Howard’s soulful sound which is firmly rooted in blues and gospel. Howard gives his fellow musicians a lot of space to shine, especially Noel McGhie, who introduces the B-side of the album with a long drum solo before Howard and Michael Smith drop in with a forceful riff that reminds of Joe McPhee’s “Nation Time” phase. The highlight of the album is Lecke, a spiritual ballad that reminds of Coltrane’s Alabama with its deeply moving, irresistible melody and Bob Raid’s lamenting bowed bass.
“Live At The Swing Club Torino, Italy” is a great album, especially for fans of classic free jazz of the late 1960s and early 70s period.
 
Состав
Alto Saxophone – Noah Howard
Double Bass – Bob Reid
Drums – Noel McGhie
Piano, Electric Piano – Michael Smith
По всем вопросам пишите личное сообщение пользователю M0p94ok.
10:00
454
Нет комментариев. Ваш будет первым!