Поиск

(Avant-Garde Jazz) [CD] Tony Malaby's Apparitions (Drew Gress, Tom Rainey, John Hollenbeck) - Voladores - 2009 [Clean Feed CF165CD], FLAC (tracks+.cue), lossless

(Avant-Garde Jazz) [CD] Tony Malaby's Apparitions (Drew Gress, Tom Rainey, John Hollenbeck) - Voladores - 2009 [Clean Feed CF165CD], FLAC (tracks+.cue), lossless
Tony Malaby's Apparitions - Voladores
Жанр: Avant-Garde Jazz
Носитель: CD
Страна-производитель диска (релиза): Portugal
Год издания: 2009
Издатель (лейбл): Clean Feed
Номер по каталогу: CF165CD
Аудиокодек: FLAC (*.flac)
Тип рипа: tracks+.cue
Битрейт аудио: lossless
Продолжительность: 00:53:28
Источник (релизер): what.cd / спасибо 6060842
Наличие сканов в содержимом раздачи: да
Треклист:
1. Homogenous Emotions (04:29)
2. Old Smokey (08:00)
3. Dreamy Drunk (09:24)
4. Can't Sleep (02:29)
5. Root Canal (04:01)
6. Los Voladores (06:39)
7. Are You Sure? (02:24)
8. YeSsssssss (01:52)
9. Smell The Sumatra (01:51)
10. East Bay (07:58)
11. Lilas (04:37)
Доп. информация:
Musicians:
Tony Malaby - tenor & soprano saxophone
Drew Gress - acoustic bass
Tom Rainey - drums
John Hollenbeck - drums/percussion, marimba, vibraphone, xylophone, glockenspiel, melodica and small kitchen appliances
Tony Malaby's Apparitions - Voladores cleanfeed-records.com
Tony Malaby Official Site
Tony Malaby from Wikipedia, the free encyclopedia
John Hollenbeck Official Site
John Hollenbeck from Wikipedia, the free encyclopedia
 
... photo ...

 
... review ...
By this day you get used to have only great albums coming from this new giant of the tenor saxophone, but watch out: “Voladores” is nothing less than a masterpiece, the best music ever Tony Malaby put to record. At his seventh release, after “Sabino”, “Apparitions”, "Adobe", "Warblepeck", "Tamarindo" and "Paloma Recio", the two-drum project of the New York musician became a true wonder. Inspired by the Mexican troup of "Voladores" that Tony watched as a young child at Mexican festivals in Tucson, Arizona (there is an initial dance made by five men, the instruments being a carrizo flute, a tamborcillo and maracas. The men, each representing the five elements of the indigenous world climb a top a 100ft. pole, one of them stays on the pole playing a flute and dancing while the remaining four descend the pole with a rope tied by one of their feet. The rope unwraps itself 13 times for each of the four flyers, symbolizing the 52 weeks of the year). With the new addition of John Hollenbeck, who adds vibraphone, marimba, xylophone and melodica to his drumkit, Tony's group Apparitions takes a new sonic leap and achieves soaring heights. With bassist Drew Gress making wonders, drummer Tom Rainey on top of his game and Hollenbeck fitting in as if he was always a member of the group,"Voladores" is the strongest release by Malaby (along with 6 new compositions by Malaby, 3 group improvisations and a never recorded composition by Ornette Coleman). Now it's our time to have the privilege to sense it.
~ cleanfeed-records.com
 
Лог создания рипа
X Lossless Decoder version 20121222 (142.2)
XLD extraction logfile from 2013-01-02 13:14:36 +0400
Tony Malaby's Apparitions / Voladores
Used drive : HL-DT-ST DVDRW GX30N (revision RP09)
Media type : Pressed CD
Ripper mode : XLD Secure Ripper
Disable audio cache : OK for the drive with a cache less than 1375KiB
Make use of C2 pointers : NO
Read offset correction : 6
Max retry count : 20
Gap status : Analyzed, Appended
TOC of the extracted CD
Track | Start | Length | Start sector | End sector
---------------------------------------------------------
1 | 00:00:00 | 04:28:41 | 0 | 20140
2 | 04:28:41 | 08:02:35 | 20141 | 56325
3 | 12:31:01 | 09:23:60 | 56326 | 98610
4 | 21:54:61 | 02:28:61 | 98611 | 109771
5 | 24:23:47 | 04:00:72 | 109772 | 127843
6 | 28:24:44 | 06:39:10 | 127844 | 157778
7 | 35:03:54 | 02:23:38 | 157779 | 168541
8 | 37:27:17 | 01:51:59 | 168542 | 176925
9 | 39:19:01 | 01:50:53 | 176926 | 185228
10 | 41:09:54 | 07:58:07 | 185229 | 221085
11 | 49:07:61 | 04:36:57 | 221086 | 241842
AccurateRip Summary (DiscID: 0017ddc3-00c8ab80-8e0c980b)
Track 01 : OK (v1, confidence 3/3)
Track 02 : OK (v1, confidence 3/3)
Track 03 : OK (v1, confidence 3/3)
Track 04 : OK (v1, confidence 3/3)
Track 05 : OK (v1, confidence 3/3)
Track 06 : OK (v1, confidence 3/3)
Track 07 : OK (v1, confidence 3/3)
Track 08 : OK (v1, confidence 3/3)
Track 09 : OK (v1, confidence 3/3)
Track 10 : OK (v1, confidence 3/3)
Track 11 : OK (v1, confidence 3/3)
->All tracks accurately ripped.
All Tracks
Album gain : -2.73 dB
Peak : 0.992981
Statistics
Read error : 0
Jitter error (maybe fixed) : 0
Retry sector count : 0
Damaged sector count : 0
Track 01
Filename : /Users/anch/Music/FLAC/Tony Malaby's Apparitions - 2009 - Voladores [FLAC]/01 - Homogeneous Emotions.flac
/Users/anch/Music/FLAC/Tony Malaby's Apparitions - 2009 - Voladores [MP3 320]/01 - Homogeneous Emotions.mp3
/Users/anch/Music/FLAC/Tony Malaby's Apparitions - 2009 - Voladores [MP3 V0]/01 - Homogeneous Emotions.mp3
Pre-gap length : 00:02:00
Track gain : -4.95 dB
Peak : 0.977264
CRC32 hash (test run) : D99E271A
CRC32 hash : D99E271A
CRC32 hash (skip zero) : 2A4C47A6
AccurateRip v1 signature : C43CD723
AccurateRip v2 signature : 7BC7B402
->Accurately ripped (v1, confidence 3/3)
Statistics
Read error : 0
Jitter error (maybe fixed) : 0
Retry sector count : 0
Damaged sector count : 0
Track 02
Filename : /Users/anch/Music/FLAC/Tony Malaby's Apparitions - 2009 - Voladores [FLAC]/02 - Old Smokey.flac
/Users/anch/Music/FLAC/Tony Malaby's Apparitions - 2009 - Voladores [MP3 320]/02 - Old Smokey.mp3
/Users/anch/Music/FLAC/Tony Malaby's Apparitions - 2009 - Voladores [MP3 V0]/02 - Old Smokey.mp3
Pre-gap length : 00:02:00
Track gain : -4.06 dB
Peak : 0.978851
CRC32 hash (test run) : 5D2A13A8
CRC32 hash : 5D2A13A8
CRC32 hash (skip zero) : 8974D58E
AccurateRip v1 signature : 5C6124CF
AccurateRip v2 signature : 6DBD8E30
->Accurately ripped (v1, confidence 3/3)
Statistics
Read error : 0
Jitter error (maybe fixed) : 0
Retry sector count : 0
Damaged sector count : 0
Track 03
Filename : /Users/anch/Music/FLAC/Tony Malaby's Apparitions - 2009 - Voladores [FLAC]/03 - Dreamy Drunk.flac
/Users/anch/Music/FLAC/Tony Malaby's Apparitions - 2009 - Voladores [MP3 320]/03 - Dreamy Drunk.mp3
/Users/anch/Music/FLAC/Tony Malaby's Apparitions - 2009 - Voladores [MP3 V0]/03 - Dreamy Drunk.mp3
Pre-gap length : 00:02:00
Track gain : -1.70 dB
Peak : 0.976013
CRC32 hash (test run) : F7A3C80E
CRC32 hash : F7A3C80E
CRC32 hash (skip zero) : CAF9C4D4
AccurateRip v1 signature : A64E3B94
AccurateRip v2 signature : 11C24F77
->Accurately ripped (v1, confidence 3/3)
Statistics
Read error : 0
Jitter error (maybe fixed) : 0
Retry sector count : 0
Damaged sector count : 0
Track 04
Filename : /Users/anch/Music/FLAC/Tony Malaby's Apparitions - 2009 - Voladores [FLAC]/04 - Can't Sleep.flac
/Users/anch/Music/FLAC/Tony Malaby's Apparitions - 2009 - Voladores [MP3 320]/04 - Can't Sleep.mp3
/Users/anch/Music/FLAC/Tony Malaby's Apparitions - 2009 - Voladores [MP3 V0]/04 - Can't Sleep.mp3
Pre-gap length : 00:02:00
Track gain : 6.32 dB
Peak : 0.618500
CRC32 hash (test run) : 53D77B90
CRC32 hash : 53D77B90
CRC32 hash (skip zero) : 02D1C6AF
AccurateRip v1 signature : A5F02E0B
AccurateRip v2 signature : 06220A33
->Accurately ripped (v1, confidence 3/3)
Statistics
Read error : 0
Jitter error (maybe fixed) : 0
Retry sector count : 0
Damaged sector count : 0
Track 05
Filename : /Users/anch/Music/FLAC/Tony Malaby's Apparitions - 2009 - Voladores [FLAC]/05 - Sour Diesel.flac
/Users/anch/Music/FLAC/Tony Malaby's Apparitions - 2009 - Voladores [MP3 320]/05 - Sour Diesel.mp3
/Users/anch/Music/FLAC/Tony Malaby's Apparitions - 2009 - Voladores [MP3 V0]/05 - Sour Diesel.mp3
Track gain : -2.24 dB
Peak : 0.979889
CRC32 hash (test run) : EEE3DF8B
CRC32 hash : EEE3DF8B
CRC32 hash (skip zero) : 55053554
AccurateRip v1 signature : 47A9FD90
AccurateRip v2 signature : 40F04546
->Accurately ripped (v1, confidence 3/3)
Statistics
Read error : 0
Jitter error (maybe fixed) : 0
Retry sector count : 0
Damaged sector count : 0
Track 06
Filename : /Users/anch/Music/FLAC/Tony Malaby's Apparitions - 2009 - Voladores [FLAC]/06 - Los Voladores.flac
/Users/anch/Music/FLAC/Tony Malaby's Apparitions - 2009 - Voladores [MP3 320]/06 - Los Voladores.mp3
/Users/anch/Music/FLAC/Tony Malaby's Apparitions - 2009 - Voladores [MP3 V0]/06 - Los Voladores.mp3
Pre-gap length : 00:02:00
Track gain : -2.91 dB
Peak : 0.992981
CRC32 hash (test run) : ABFB102A
CRC32 hash : ABFB102A
CRC32 hash (skip zero) : 7C52E774
AccurateRip v1 signature : 94A7C265
AccurateRip v2 signature : 8CA38AC3
->Accurately ripped (v1, confidence 3/3)
Statistics
Read error : 0
Jitter error (maybe fixed) : 0
Retry sector count : 0
Damaged sector count : 0
Track 07
Filename : /Users/anch/Music/FLAC/Tony Malaby's Apparitions - 2009 - Voladores [FLAC]/07 - Are You Sure?.flac
/Users/anch/Music/FLAC/Tony Malaby's Apparitions - 2009 - Voladores [MP3 320]/07 - Are You Sure?.mp3
/Users/anch/Music/FLAC/Tony Malaby's Apparitions - 2009 - Voladores [MP3 V0]/07 - Are You Sure?.mp3
Pre-gap length : 00:02:00
Track gain : 2.21 dB
Peak : 0.862244
CRC32 hash (test run) : 6AEFD477
CRC32 hash : 6AEFD477
CRC32 hash (skip zero) : F2416C1E
AccurateRip v1 signature : 0F829FA0
AccurateRip v2 signature : 0989AFB1
->Accurately ripped (v1, confidence 3/3)
Statistics
Read error : 0
Jitter error (maybe fixed) : 0
Retry sector count : 0
Damaged sector count : 0
Track 08
Filename : /Users/anch/Music/FLAC/Tony Malaby's Apparitions - 2009 - Voladores [FLAC]/08 - YeSsssssss.flac
/Users/anch/Music/FLAC/Tony Malaby's Apparitions - 2009 - Voladores [MP3 320]/08 - YeSsssssss.mp3
/Users/anch/Music/FLAC/Tony Malaby's Apparitions - 2009 - Voladores [MP3 V0]/08 - YeSsssssss.mp3
Pre-gap length : 00:02:00
Track gain : 5.64 dB
Peak : 0.921326
CRC32 hash (test run) : F453883D
CRC32 hash : F453883D
CRC32 hash (skip zero) : 81E7EC1B
AccurateRip v1 signature : 2FB3F41F
AccurateRip v2 signature : E6B86165
->Accurately ripped (v1, confidence 3/3)
Statistics
Read error : 0
Jitter error (maybe fixed) : 0
Retry sector count : 0
Damaged sector count : 0
Track 09
Filename : /Users/anch/Music/FLAC/Tony Malaby's Apparitions - 2009 - Voladores [FLAC]/09 - Wake Up, Smell The Sumatra.flac
/Users/anch/Music/FLAC/Tony Malaby's Apparitions - 2009 - Voladores [MP3 320]/09 - Wake Up, Smell The Sumatra.mp3
/Users/anch/Music/FLAC/Tony Malaby's Apparitions - 2009 - Voladores [MP3 V0]/09 - Wake Up, Smell The Sumatra.mp3
Pre-gap length : 00:02:00
Track gain : 2.15 dB
Peak : 0.980927
CRC32 hash (test run) : 65AEE4AE
CRC32 hash : 65AEE4AE
CRC32 hash (skip zero) : 033EF809
AccurateRip v1 signature : A7AACBCF
AccurateRip v2 signature : 7E090D3B
->Accurately ripped (v1, confidence 3/3)
Statistics
Read error : 0
Jitter error (maybe fixed) : 0
Retry sector count : 0
Damaged sector count : 0
Track 10
Filename : /Users/anch/Music/FLAC/Tony Malaby's Apparitions - 2009 - Voladores [FLAC]/10 - East Bay.flac
/Users/anch/Music/FLAC/Tony Malaby's Apparitions - 2009 - Voladores [MP3 320]/10 - East Bay.mp3
/Users/anch/Music/FLAC/Tony Malaby's Apparitions - 2009 - Voladores [MP3 V0]/10 - East Bay.mp3
Track gain : -1.19 dB
Peak : 0.980988
CRC32 hash (test run) : B192EDB4
CRC32 hash : B192EDB4
CRC32 hash (skip zero) : 5DB2F33F
AccurateRip v1 signature : 6C30298E
AccurateRip v2 signature : 0ED6709A
->Accurately ripped (v1, confidence 3/3)
Statistics
Read error : 0
Jitter error (maybe fixed) : 0
Retry sector count : 0
Damaged sector count : 0
Track 11
Filename : /Users/anch/Music/FLAC/Tony Malaby's Apparitions - 2009 - Voladores [FLAC]/11 - Lilas.flac
/Users/anch/Music/FLAC/Tony Malaby's Apparitions - 2009 - Voladores [MP3 320]/11 - Lilas.mp3
/Users/anch/Music/FLAC/Tony Malaby's Apparitions - 2009 - Voladores [MP3 V0]/11 - Lilas.mp3
Pre-gap length : 00:02:00
Track gain : 0.26 dB
Peak : 0.973541
CRC32 hash (test run) : DB0CF434
CRC32 hash : DB0CF434
CRC32 hash (skip zero) : A772FD23
AccurateRip v1 signature : 8503D99E
AccurateRip v2 signature : B004C32E
->Accurately ripped (v1, confidence 3/3)
Statistics
Read error : 0
Jitter error (maybe fixed) : 0
Retry sector count : 0
Damaged sector count : 0
No errors occurred
End of status report
 
Содержание индексной карты (.CUE)
TITLE "Voladores"
PERFORMER "Tony Malaby's Apparitions"
REM GENRE "Free Jazz"
REM DATE "2009"
REM DISCID 8E0C980B
REM REPLAYGAIN_ALBUM_GAIN -2.73 dB
REM REPLAYGAIN_ALBUM_PEAK 0.992981
FILE "01 - Homogeneous Emotions.flac" WAVE
TRACK 01 AUDIO
TITLE "Homogeneous Emotions"
PERFORMER "Tony Malaby's Apparitions"
REM REPLAYGAIN_TRACK_GAIN -4.95 dB
REM REPLAYGAIN_TRACK_PEAK 0.977264
INDEX 01 00:00:00
TRACK 02 AUDIO
TITLE "Old Smokey"
PERFORMER "Tony Malaby's Apparitions"
REM REPLAYGAIN_TRACK_GAIN -4.06 dB
REM REPLAYGAIN_TRACK_PEAK 0.978851
INDEX 00 04:26:41
FILE "02 - Old Smokey.flac" WAVE
INDEX 01 00:00:00
TRACK 03 AUDIO
TITLE "Dreamy Drunk"
PERFORMER "Tony Malaby's Apparitions"
REM REPLAYGAIN_TRACK_GAIN -1.70 dB
REM REPLAYGAIN_TRACK_PEAK 0.976013
INDEX 00 08:00:35
FILE "03 - Dreamy Drunk.flac" WAVE
INDEX 01 00:00:00
TRACK 04 AUDIO
TITLE "Can't Sleep"
PERFORMER "Tony Malaby's Apparitions"
REM REPLAYGAIN_TRACK_GAIN 6.32 dB
REM REPLAYGAIN_TRACK_PEAK 0.618500
INDEX 00 09:21:60
FILE "04 - Can't Sleep.flac" WAVE
INDEX 01 00:00:00
FILE "05 - Sour Diesel.flac" WAVE
TRACK 05 AUDIO
TITLE "Sour Diesel"
PERFORMER "Tony Malaby's Apparitions"
REM REPLAYGAIN_TRACK_GAIN -2.24 dB
REM REPLAYGAIN_TRACK_PEAK 0.979889
INDEX 01 00:00:00
TRACK 06 AUDIO
TITLE "Los Voladores"
PERFORMER "Tony Malaby's Apparitions"
REM REPLAYGAIN_TRACK_GAIN -2.91 dB
REM REPLAYGAIN_TRACK_PEAK 0.992981
INDEX 00 03:58:72
FILE "06 - Los Voladores.flac" WAVE
INDEX 01 00:00:00
TRACK 07 AUDIO
TITLE "Are You Sure?"
PERFORMER "Tony Malaby's Apparitions"
REM REPLAYGAIN_TRACK_GAIN 2.21 dB
REM REPLAYGAIN_TRACK_PEAK 0.862244
INDEX 00 06:37:10
FILE "07 - Are You Sure.flac" WAVE
INDEX 01 00:00:00
TRACK 08 AUDIO
TITLE "YeSsssssss"
PERFORMER "Tony Malaby's Apparitions"
REM REPLAYGAIN_TRACK_GAIN 5.64 dB
REM REPLAYGAIN_TRACK_PEAK 0.921326
INDEX 00 02:21:38
FILE "08 - YeSsssssss.flac" WAVE
INDEX 01 00:00:00
TRACK 09 AUDIO
TITLE "Wake Up, Smell The Sumatra"
PERFORMER "Tony Malaby's Apparitions"
REM REPLAYGAIN_TRACK_GAIN 2.15 dB
REM REPLAYGAIN_TRACK_PEAK 0.980927
INDEX 00 01:49:59
FILE "09 - Wake Up, Smell The Sumatra.flac" WAVE
INDEX 01 00:00:00
FILE "10 - East Bay.flac" WAVE
TRACK 10 AUDIO
TITLE "East Bay"
PERFORMER "Tony Malaby's Apparitions"
REM REPLAYGAIN_TRACK_GAIN -1.19 dB
REM REPLAYGAIN_TRACK_PEAK 0.980988
INDEX 01 00:00:00
TRACK 11 AUDIO
TITLE "Lilas"
PERFORMER "Tony Malaby's Apparitions"
REM REPLAYGAIN_TRACK_GAIN 0.26 dB
REM REPLAYGAIN_TRACK_PEAK 0.973541
INDEX 00 07:56:07
FILE "11 - Lilas.flac" WAVE
INDEX 01 00:00:00
09:59
650
Нет комментариев. Ваш будет первым!