Вы используете незарегистрированную версию компонента "Вкладки"!

Поиск

(Free Improvisation, NotTwo Records) [CD] Petr Cancura, Joe Morris, Jason Nazary - Fine Objects - 2008, FLAC (tracks+.cue), lossless

(Free Improvisation, NotTwo Records) [CD] Petr Cancura, Joe Morris, Jason Nazary - Fine Objects - 2008, FLAC (tracks+.cue), lossless
Треклист:
Petr Cancura, Joe Morris, Jason Nazary / Fine Objects
Жанр: Free Improvisation, NotTwo Records
Носитель: CD
Страна-производитель диска (релиза): Poland
Год издания: 2008
Издатель (лейбл): NotTwo Records
Номер по каталогу: MW 809-2
Аудиокодек: FLAC (*.flac)
Тип рипа: tracks+.cue
Битрейт аудио: lossless
Продолжительность: 53:01
Источник (релизер): я
Наличие сканов в содержимом раздачи: да
Треклист:
1. Beautiful Existence (Joe Morris) 5:46
2. Rwanda (Cancura / Morris / Nazary) 8:23
3. My Reverie (Larry Clinton) 6:19
4. Big Foot (Petr Cancura) 6:10
5. Flip & Spike (Joe Morris) 6:16
6. Gazzelloni (Eric Dolphy) 4:12
7. Folk (Cancura / Morris / Nazary) 4:52
8. Voice Poetry (Ornette Coleman) 11:04
Recorded February 3, 2007 at Riti Studios, Guilford, Connecticut.
Petr Cancura – Tenor and Soprano Saxophones
Joe Morris – Bass
Jason Nazary – Drums
 
Лог создания рипа
Exact Audio Copy V1.0 beta 3 from 29. August 2011
EAC extraction logfile from 16. November 2014, 11:28
Petr Cancura, Joe Morris, Jason Nazary / Fine Objects
Used drive : SlimtypeeNAU508 5 Adapter: 1 ID: 0
Read mode : Secure
Utilize accurate stream : Yes
Defeat audio cache : Yes
Make use of C2 pointers : No
Read offset correction : 6
Overread into Lead-In and Lead-Out : No
Fill up missing offset samples with silence : Yes
Delete leading and trailing silent blocks : No
Null samples used in CRC calculations : Yes
Used interface : Native Win32 interface for Win NT & 2000
Gap handling : Appended to previous track
Used output format : User Defined Encoder
Selected bitrate : 768 kBit/s
Quality : High
Add ID3 tag : No
Command line compressor : C:\Program Files (x86)\Exact Audio Copy\Flac\flac.exe
Additional command line options : -8 -V -T "ARTIST=%artist%" -T "TITLE=%title%" -T "ALBUM=%albumtitle%" -T "DATE=%year%" -T "TRACKNUMBER=%tracknr%" -T "TOTALTRACKS=%numtracks%" -T "GENRE=%genre%" -T "ALBUMARTIST=%albumartist%" -T "ALBUM ARTIST=%albumartist%" -T "COMMENT=EAC Secure Mode, Test & Copy, AccurateRip, FLAC -8" %source%
TOC of the extracted CD
Track | Start | Length | Start sector | End sector
---------------------------------------------------------
1 | 0:00.00 | 5:46.22 | 0 | 25971
2 | 5:46.22 | 8:22.57 | 25972 | 63678
3 | 14:09.04 | 6:19.10 | 63679 | 92113
4 | 20:28.14 | 6:09.48 | 92114 | 119836
5 | 26:37.62 | 6:15.68 | 119837 | 148029
6 | 32:53.55 | 4:11.62 | 148030 | 166916
7 | 37:05.42 | 4:51.40 | 166917 | 188781
8 | 41:57.07 | 11:04.06 | 188782 | 238587
Track 1
Filename C:\EAC rips\01 - Beautiful Existence.wav
Pre-gap length 0:00:02.00
Peak level 100.0 %
Extraction speed 2.5 X
Track quality 100.0 %
Test CRC E7AAF6B7
Copy CRC E7AAF6B7
Accurately ripped (confidence 1) [8CBEB6C0] (AR v1)
Copy OK
Track 2
Filename C:\EAC rips\02 - Rwanda.wav
Pre-gap length 0:00:01.00
Peak level 100.0 %
Extraction speed 3.0 X
Track quality 100.0 %
Test CRC DB87CC38
Copy CRC DB87CC38
Accurately ripped (confidence 1) [39B06124] (AR v1)
Copy OK
Track 3
Filename C:\EAC rips\03 - My Reverie.wav
Pre-gap length 0:00:01.00
Peak level 73.9 %
Extraction speed 2.8 X
Track quality 99.9 %
Test CRC 1CF39864
Copy CRC 1CF39864
Accurately ripped (confidence 1) [22C3442F] (AR v1)
Copy OK
Track 4
Filename C:\EAC rips\04 - Big Foot.wav
Pre-gap length 0:00:01.00
Peak level 98.9 %
Extraction speed 3.5 X
Track quality 100.0 %
Test CRC 9BAFB8E4
Copy CRC 9BAFB8E4
Accurately ripped (confidence 1) [79EE46C7] (AR v1)
Copy OK
Track 5
Filename C:\EAC rips\05 - Flip & Spike.wav
Pre-gap length 0:00:01.00
Peak level 98.1 %
Extraction speed 3.8 X
Track quality 100.0 %
Test CRC D3BFE611
Copy CRC D3BFE611
Accurately ripped (confidence 1) [4C56BFFE] (AR v1)
Copy OK
Track 6
Filename C:\EAC rips\06 - Gazzelloni.wav
Pre-gap length 0:00:01.00
Peak level 99.7 %
Extraction speed 3.8 X
Track quality 100.0 %
Test CRC 82E9B58E
Copy CRC 82E9B58E
Accurately ripped (confidence 1) [F4CFFF4F] (AR v1)
Copy OK
Track 7
Filename C:\EAC rips\07 - Folk.wav
Pre-gap length 0:00:01.00
Peak level 98.7 %
Extraction speed 4.0 X
Track quality 100.0 %
Test CRC BE977CE4
Copy CRC BE977CE4
Accurately ripped (confidence 1) [A2C55809] (AR v1)
Copy OK
Track 8
Filename C:\EAC rips\08 - Voice Poetry.wav
Pre-gap length 0:00:01.00
Peak level 98.0 %
Extraction speed 4.5 X
Track quality 100.0 %
Test CRC 2F300EF6
Copy CRC 2F300EF6
Accurately ripped (confidence 1) [0878FC4B] (AR v1)
Copy OK
All tracks accurately ripped
No errors occurred
End of status report
---- CUETools DB Plugin V2.1.4
[CTDB TOCID: zw1wfegUGJETp3lwjsAOKYcFWNA-] disk not present in database
Submit result: zw1wfegUGJETp3lwjsAOKYcFWNA- has been uploaded
==== Log checksum 2E73BF5477A3387B950AD786F3F3A77A64E852815578B2A2D72607DEB5889B49 ====
 
Содержание индексной карты (.CUE)
REM GENRE "NotTwo MW 809-2"
REM DATE 2008
REM DISCID 710C6D08
REM COMMENT "ExactAudioCopy v1.0b3"
PERFORMER "Petr Cancura, Joe Morris, Jason Nazary"
TITLE "Fine Objects"
FILE "01 - Beautiful Existence.wav" WAVE
TRACK 01 AUDIO
TITLE "Beautiful Existence"
PERFORMER "Petr Cancura, Joe Morris, Jason Nazary"
INDEX 01 00:00:00
TRACK 02 AUDIO
TITLE "Rwanda"
PERFORMER "Petr Cancura, Joe Morris, Jason Nazary"
INDEX 00 05:45:22
FILE "02 - Rwanda.wav" WAVE
INDEX 01 00:00:00
TRACK 03 AUDIO
TITLE "My Reverie"
PERFORMER "Petr Cancura, Joe Morris, Jason Nazary"
INDEX 00 08:21:57
FILE "03 - My Reverie.wav" WAVE
INDEX 01 00:00:00
TRACK 04 AUDIO
TITLE "Big Foot"
PERFORMER "Petr Cancura, Joe Morris, Jason Nazary"
INDEX 00 06:18:10
FILE "04 - Big Foot.wav" WAVE
INDEX 01 00:00:00
TRACK 05 AUDIO
TITLE "Flip & Spike"
PERFORMER "Petr Cancura, Joe Morris, Jason Nazary"
INDEX 00 06:08:48
FILE "05 - Flip & Spike.wav" WAVE
INDEX 01 00:00:00
TRACK 06 AUDIO
TITLE "Gazzelloni"
PERFORMER "Petr Cancura, Joe Morris, Jason Nazary"
INDEX 00 06:14:68
FILE "06 - Gazzelloni.wav" WAVE
INDEX 01 00:00:00
TRACK 07 AUDIO
TITLE "Folk"
PERFORMER "Petr Cancura, Joe Morris, Jason Nazary"
INDEX 00 04:10:62
FILE "07 - Folk.wav" WAVE
INDEX 01 00:00:00
TRACK 08 AUDIO
TITLE "Voice Poetry"
PERFORMER "Petr Cancura, Joe Morris, Jason Nazary"
INDEX 00 04:50:40
FILE "08 - Voice Poetry.wav" WAVE
INDEX 01 00:00:00
По всем вопросам пишите личное сообщение пользователю M0p94ok.
10:01
299
Нет комментариев. Ваш будет первым!