Вы используете незарегистрированную версию компонента "Вкладки"!

Поиск

(Avant-Garde Jazz, Free Improvisation, Creative Sources) [CD] Canaries On The Pole (Jacques Foschia, Mike Goyvaerts, Christoph Irmer, Georg Wissel) - Canaries On The Pole #2 - 2008, FLAC (tracks+.cue), lossless

(Avant-Garde Jazz, Free Improvisation, Creative Sources) [CD] Canaries On The Pole (Jacques Foschia, Mike Goyvaerts, Christoph Irmer, Georg Wissel) - Canaries On The Pole #2 - 2008, FLAC (tracks+.cue), lossless
Треклист:
Canaries On The Pole / Canaries On The Pole #2
Жанр: Avant-Garde Jazz, Free Improvisation, Creative Sources
Носитель: CD
Страна-производитель диска (релиза): Portugal
Год издания: 2008
Издатель (лейбл): Creative Sources
Номер по каталогу: cs 135 cd
Страна исполнителя (группы): Belgium
Аудиокодек: FLAC (*.flac)
Тип рипа: tracks+.cue
Битрейт аудио: lossless
Продолжительность: 00:51:53
Источник (релизер): свой фирменный диск
Наличие сканов в содержимом раздачи:
Треклист:
1. May I Help You? 2:23
2. In / Out 14:14
3. Decompression 5:47
4. Fur Lotte 2:15
5. Compression 3:46
6. Once Upon 3:57
7. Fishing For Compliments 3:50
8. 5% 3:00
9. Schone Mullerei 8:02
10. The Great Ippener 3:41
 
Лог создания рипа
Exact Audio Copy V1.0 beta 3 from 29. August 2011
EAC extraction logfile from 14. December 2014, 14:16
Canaries On The Pole / Canaries On The Pole #2
Used drive : PIONEER DVD-RW DVR-115D Adapter: 0 ID: 0
Read mode : Secure
Utilize accurate stream : Yes
Defeat audio cache : Yes
Make use of C2 pointers : No
Read offset correction : 48
Overread into Lead-In and Lead-Out : No
Fill up missing offset samples with silence : Yes
Delete leading and trailing silent blocks : No
Null samples used in CRC calculations : Yes
Used interface : Installed external ASPI interface
Gap handling : Appended to previous track
Used output format : User Defined Encoder
Selected bitrate : 768 kBit/s
Quality : High
Add ID3 tag : No
Command line compressor : C:\Program Files\Exact Audio Copy\Flac\flac.exe
Additional command line options : -6 -V -T "ARTIST=%artist%" -T "TITLE=%title%" -T "ALBUM=%albumtitle%" -T "DATE=%year%" -T "TRACKNUMBER=%tracknr%" -T "GENRE=%genre%" -T "COMMENT=%comment%" -T "BAND=%albuminterpret%" -T "COMPOSER=%composer%" %haslyrics%--tag-from-file=LYRICS="%lyricsfile%"%haslyrics% -T "DISCNUMBER=%cdnumber%" -T "TOTALDISCS=%totalcds%" -T "TOTALTRACKS=%numtracks%" %hascover%--picture="%coverfile%"%hascover% %source% -o %dest%
TOC of the extracted CD
Track | Start | Length | Start sector | End sector
---------------------------------------------------------
1 | 0:00.00 | 2:25.37 | 0 | 10911
2 | 2:25.37 | 14:24.47 | 10912 | 75758
3 | 16:50.09 | 5:50.64 | 75759 | 102072
4 | 22:40.73 | 2:17.68 | 102073 | 112415
5 | 24:58.66 | 3:51.34 | 112416 | 129774
6 | 28:50.25 | 4:07.04 | 129775 | 148303
7 | 32:57.29 | 3:58.60 | 148304 | 166213
8 | 36:56.14 | 3:06.39 | 166214 | 180202
9 | 40:02.53 | 8:07.62 | 180203 | 216789
10 | 48:10.40 | 3:42.64 | 216790 | 233503
Track 1
Filename D:\zzz\01 - May I Help You.wav
Pre-gap length 0:00:02.00
Peak level 96.6 %
Extraction speed 4.3 X
Track quality 100.0 %
Test CRC 95FE30F7
Copy CRC 95FE30F7
Track not present in AccurateRip database
Copy OK
Track 2
Filename D:\zzz\02 - In , Out.wav
Peak level 96.6 %
Extraction speed 6.0 X
Track quality 100.0 %
Test CRC 72222FD5
Copy CRC 72222FD5
Track not present in AccurateRip database
Copy OK
Track 3
Filename D:\zzz\03 - Decompression.wav
Peak level 32.5 %
Extraction speed 6.6 X
Track quality 100.0 %
Test CRC 94292F7B
Copy CRC 94292F7B
Track not present in AccurateRip database
Copy OK
Track 4
Filename D:\zzz\04 - Fur Lotte.wav
Peak level 96.6 %
Extraction speed 5.9 X
Track quality 100.0 %
Test CRC 63E15DBC
Copy CRC 63E15DBC
Track not present in AccurateRip database
Copy OK
Track 5
Filename D:\zzz\05 - Compression.wav
Peak level 42.9 %
Extraction speed 6.7 X
Track quality 100.0 %
Test CRC 44C0D356
Copy CRC 44C0D356
Track not present in AccurateRip database
Copy OK
Track 6
Filename D:\zzz\06 - Once Upon.wav
Peak level 96.6 %
Extraction speed 7.0 X
Track quality 100.0 %
Test CRC A2500A5B
Copy CRC A2500A5B
Track not present in AccurateRip database
Copy OK
Track 7
Filename D:\zzz\07 - Fishing For Compliments.wav
Peak level 96.6 %
Extraction speed 7.3 X
Track quality 100.0 %
Test CRC 28676D9D
Copy CRC 28676D9D
Track not present in AccurateRip database
Copy OK
Track 8
Filename D:\zzz\08 - 5%.wav
Peak level 14.1 %
Extraction speed 7.2 X
Track quality 100.0 %
Test CRC 0DFD450A
Copy CRC 0DFD450A
Track not present in AccurateRip database
Copy OK
Track 9
Filename D:\zzz\09 - Schone Mullerei.wav
Peak level 96.6 %
Extraction speed 8.3 X
Track quality 100.0 %
Test CRC 6919284B
Copy CRC 6919284B
Track not present in AccurateRip database
Copy OK
Track 10
Filename D:\zzz\10 - The Great Ippener.wav
Peak level 96.6 %
Extraction speed 8.0 X
Track quality 100.0 %
Test CRC F75BC235
Copy CRC F75BC235
Track not present in AccurateRip database
Copy OK
None of the tracks are present in the AccurateRip database
No errors occurred
End of status report
==== Log checksum C43A0B2AB856B07C3E993814D6C9022C74585AFEBCFC13364519B6B5139C65FE ====
 
Содержание индексной карты (.CUE)
REM GENRE "Free Improvisation"
REM DATE 2008
REM DISCID 770C290A
REM COMMENT "ExactAudioCopy v1.0b3"
PERFORMER "Canaries On The Pole"
TITLE "Canaries On The Pole #2"
FILE "01 - May I Help You.wav" WAVE
TRACK 01 AUDIO
TITLE "May I Help You?"
PERFORMER "Canaries On The Pole"
FLAGS DCP
INDEX 01 00:00:00
FILE "02 - In , Out.wav" WAVE
TRACK 02 AUDIO
TITLE "In / Out"
PERFORMER "Canaries On The Pole"
FLAGS DCP
INDEX 01 00:00:00
FILE "03 - Decompression.wav" WAVE
TRACK 03 AUDIO
TITLE "Decompression"
PERFORMER "Canaries On The Pole"
FLAGS DCP
INDEX 01 00:00:00
FILE "04 - Fur Lotte.wav" WAVE
TRACK 04 AUDIO
TITLE "Fur Lotte"
PERFORMER "Canaries On The Pole"
FLAGS DCP
INDEX 01 00:00:00
FILE "05 - Compression.wav" WAVE
TRACK 05 AUDIO
TITLE "Compression"
PERFORMER "Canaries On The Pole"
FLAGS DCP
INDEX 01 00:00:00
FILE "06 - Once Upon.wav" WAVE
TRACK 06 AUDIO
TITLE "Once Upon"
PERFORMER "Canaries On The Pole"
FLAGS DCP
INDEX 01 00:00:00
FILE "07 - Fishing For Compliments.wav" WAVE
TRACK 07 AUDIO
TITLE "Fishing For Compliments"
PERFORMER "Canaries On The Pole"
FLAGS DCP
INDEX 01 00:00:00
FILE "08 - 5%.wav" WAVE
TRACK 08 AUDIO
TITLE "5% "
PERFORMER "Canaries On The Pole"
FLAGS DCP
INDEX 01 00:00:00
FILE "09 - Schone Mullerei.wav" WAVE
TRACK 09 AUDIO
TITLE "Schone Mullerei"
PERFORMER "Canaries On The Pole"
FLAGS DCP
INDEX 01 00:00:00
FILE "10 - The Great Ippener.wav" WAVE
TRACK 10 AUDIO
TITLE "The Great Ippener"
PERFORMER "Canaries On The Pole"
FLAGS DCP
INDEX 01 00:00:00
 
Лог проверки качества
d:\>d:\aucdtect -d/-m0 d:\zzz\*.wav
auCDtect: CD records authenticity detector, version 0.8.2
Copyright (c) 2004 Oleg Berngardt. All rights reserved.
Copyright (c) 2004 Alexander Djourik. All rights reserved.
------------------------------------------------------------
Processing file: [01. May I Help You.wav]
------------------------------------------------------------
This track looks like CDDA with probability 100%
------------------------------------------------------------
Processing file: [02. In - Out.wav]
------------------------------------------------------------
This track looks like CDDA with probability 100%
------------------------------------------------------------
Processing file: [03. Decompression.wav]
------------------------------------------------------------
This track looks like CDDA with probability 100%
------------------------------------------------------------
Processing file: [04. Fur Lotte.wav]
------------------------------------------------------------
This track looks like CDDA with probability 100%
------------------------------------------------------------
Processing file: [05. Compression.wav]
------------------------------------------------------------
This track looks like CDDA with probability 100%
------------------------------------------------------------
Processing file: [06. Once Upon.wav]
------------------------------------------------------------
This track looks like CDDA with probability 100%
------------------------------------------------------------
Processing file: [07. Fishing For Compliments.wav]
------------------------------------------------------------
This track looks like CDDA with probability 100%
------------------------------------------------------------
Processing file: [08. 5% .wav]
------------------------------------------------------------
This track looks like CDDA with probability 100%
------------------------------------------------------------
Processing file: [09. Schone Mullerei.wav]
------------------------------------------------------------
This track looks like CDDA with probability 99%
------------------------------------------------------------
Processing file: [10. The Great Ippener.wav]
------------------------------------------------------------
This track looks like CDDA with probability 100%
------------------------------------------------------------
Final Conclusion:
------------------------------------------------------------
These tracks looks like CDDA with probability 100%
Доп. информация:
 
Album Info & Review
All music by Jacques Foschia, Mike Goyvaerts, Christoph Irmer and Georg Wissel
The city sounds on 2. are recorded simultaneously with the band's improvisation by a microphone placed outside the studio.
Recorded June 9, 2007 at Jazzzolder, Mechelen (Belgium) by Johan Vandermaelen, and mastered at Amplus, Aaigem
Supported by John "Sugar Daddy" Rogiers
Images by Georg Wissel
Artwork cover by Carlos Santos
Produced by Ernesto Rodrigues
The opener for this album "May I help you," comes out of the speakers like a clarion call: tight-but-playful improvisation is alive and well. This is the kind of rapid exchange of squeaks, scrapes, plinks, booms, and clatters that graced recordings by the likes of Bevan/Kingston/Lewis and Russell/Durant/Butcher from the U.K., and Reams/Hoskin in the U.S. It's fun stuff, light yet somehow surrealistic. "Fur Lotte" and "Fishing for compliments" are other short pieces that have a similar feel.
Lest the listener thinks she has them pegged, however, along comes a more experimental piece like "In/Out." Perhaps something like an improviser's take on John Cage, the piece is based on the clever idea of placing a mic outside the studio to record city sounds as the band plays inside. The illusion is subterranean: the live studio room paired with the rumble of traffic and sidewalk chatter gives the impression that the listener is down in a manhole with the band. This effect is heightened by the band's use of techniques evocative of the creatures and substances that might inhabit such environs. However, eventually tower bells outside playing hymns take over too much of the sonic space to the point of annoyance. The group begins to seem somewhat at a loss for "words," and the piece with something of a whimper.
But no matter. One of the things setting this CD apart (perhaps paradoxically) from so many other current documents of improvisation is its promise of variety. After a few tracks, it becomes clear that the unexpected is to be expected.
Surely one element that explains this is that the group is capable of unusual singularity of vision. For example, on "Schone Mullerei," all of the players initially commit to a frantic non-tonal rattling and burbling. Just when it seems that they are being too hesitant and conservative with the music, the stasis is beautifully broken as one of the players begins bellowing in a horn-like sound.
On this and a couple of other pieces the musical development rivals the control and drama of compositions. "Decompression" shows that the group has good ears for outside harmony. Long slow tones where nearly all are well chosen to maintain the haunting sense of mystery. The counterpart, "Compression" is a quieter piece. the horns and violin practicing whispery overtones while the drummer makes soup in the other room. My favorite track on the CD, "Once upon," has an impressive sense of drama, the evolving shapes of the sounds and techniques unfolding a story for the listener. An incredible degree of listening-based interplay is going on here, where the players seem to either know each other's playing extremely well; or perhaps they're psychic. - Wyman Brantley, SquidsEar
 
Состав
Jacques Foschia: Eb & bass clarinets
Mike Goyvaerts: percussion, objects, toys
Christoph Irmer: violin
Georg Wissel: "prepared" alto & tenor saxes, objects
По всем вопросам пишите личное сообщение пользователю M0p94ok.
10:01
311
Нет комментариев. Ваш будет первым!