Вы используете незарегистрированную версию компонента "Вкладки"!

Поиск

(Avant-Garde Jazz, Free Improvisation, Electroacoustic, Creative Sources) [CD] Ernesto Rodrigues, Guilherme Rodrigues, Carlos Santos, Andrew Drury - Eterno Retorno - 2009, FLAC (tracks+.cue), lossless

(Avant-Garde Jazz, Free Improvisation, Electroacoustic, Creative Sources) [CD] Ernesto Rodrigues, Guilherme Rodrigues, Carlos Santos, Andrew Drury - Eterno Retorno - 2009, FLAC (tracks+.cue), lossless
Треклист:
Ernesto Rodrigues, Guilherme Rodrigues, Carlos Santos, Andrew Drury / Eterno Retorno
Жанр: Avant-Garde Jazz, Free Improvisation, Electroacoustic, Creative Sources
Носитель: CD
Страна-производитель диска (релиза): Portugal
Год издания: 2009
Издатель (лейбл): Creative Sources
Номер по каталогу: cs 144 cd
Страна исполнителя (группы): Portugal, US
Аудиокодек: FLAC (*.flac)
Тип рипа: tracks+.cue
Битрейт аудио: lossless
Продолжительность: 00:52:17
Источник (релизер): свой фирменный диск
Наличие сканов в содержимом раздачи:
Треклист:
1. Street Food
2. Good Dog, Cookie
3. Adamant Distances
4. Many Happy Returns
 
Лог создания рипа
Exact Audio Copy V1.0 beta 3 from 29. August 2011
EAC extraction logfile from 15. December 2014, 19:41
Ernesto Rodrigues, Guilherme Rodrigues, Carlos Santos, Andrew Drury / Eterno Retorno
Used drive : PIONEER DVD-RW DVR-115D Adapter: 0 ID: 0
Read mode : Secure
Utilize accurate stream : Yes
Defeat audio cache : Yes
Make use of C2 pointers : No
Read offset correction : 48
Overread into Lead-In and Lead-Out : No
Fill up missing offset samples with silence : Yes
Delete leading and trailing silent blocks : No
Null samples used in CRC calculations : Yes
Used interface : Installed external ASPI interface
Gap handling : Appended to previous track
Used output format : User Defined Encoder
Selected bitrate : 768 kBit/s
Quality : High
Add ID3 tag : No
Command line compressor : C:\Program Files\Exact Audio Copy\Flac\flac.exe
Additional command line options : -6 -V -T "ARTIST=%artist%" -T "TITLE=%title%" -T "ALBUM=%albumtitle%" -T "DATE=%year%" -T "TRACKNUMBER=%tracknr%" -T "GENRE=%genre%" -T "COMMENT=%comment%" -T "BAND=%albuminterpret%" -T "COMPOSER=%composer%" %haslyrics%--tag-from-file=LYRICS="%lyricsfile%"%haslyrics% -T "DISCNUMBER=%cdnumber%" -T "TOTALDISCS=%totalcds%" -T "TOTALTRACKS=%numtracks%" %hascover%--picture="%coverfile%"%hascover% %source% -o %dest%
TOC of the extracted CD
Track | Start | Length | Start sector | End sector
---------------------------------------------------------
1 | 0:00.00 | 11:28.20 | 0 | 51619
2 | 11:28.20 | 15:09.21 | 51620 | 119815
3 | 26:37.41 | 12:48.47 | 119816 | 177462
4 | 39:26.13 | 12:50.28 | 177463 | 235240
Track 1
Filename D:\zzz\01 - Street Food.wav
Pre-gap length 0:00:02.00
Peak level 99.8 %
Extraction speed 5.5 X
Track quality 100.0 %
Test CRC B18723A3
Copy CRC B18723A3
Track not present in AccurateRip database
Copy OK
Track 2
Filename D:\zzz\02 - Good Dog, Cookie.wav
Pre-gap length 0:00:07.01
Peak level 99.8 %
Extraction speed 6.9 X
Track quality 100.0 %
Test CRC BCAD11AB
Copy CRC BCAD11AB
Track not present in AccurateRip database
Copy OK
Track 3
Filename D:\zzz\03 - Adamant Distances.wav
Pre-gap length 0:00:09.01
Peak level 99.8 %
Extraction speed 7.9 X
Track quality 100.0 %
Test CRC 6FAF4CD1
Copy CRC 6FAF4CD1
Track not present in AccurateRip database
Copy OK
Track 4
Filename D:\zzz\04 - Many Happy Returns.wav
Pre-gap length 0:00:08.01
Peak level 99.8 %
Extraction speed 8.7 X
Track quality 100.0 %
Test CRC F06CA75E
Copy CRC F06CA75E
Track not present in AccurateRip database
Copy OK
None of the tracks are present in the AccurateRip database
No errors occurred
End of status report
==== Log checksum 92B7836BDC1A00838FA34D4167FC0D2293CC5EC6EE673325B25699673FA54B90 ====
 
Содержание индексной карты (.CUE)
REM GENRE "Electroacoustic Improvisation"
REM DATE 2009
REM DISCID 3C0C4004
REM COMMENT "ExactAudioCopy v1.0b3"
PERFORMER "Ernesto Rodrigues, Guilherme Rodrigues, Carlos Santos, Andrew Drury"
TITLE "Eterno Retorno"
FILE "01 - Street Food.wav" WAVE
TRACK 01 AUDIO
TITLE "Street Food"
PERFORMER "Ernesto Rodrigues, Guilherme Rodrigues, Carlos Santos, Andrew Drury"
INDEX 01 00:00:00
TRACK 02 AUDIO
TITLE "Good Dog, Cookie"
PERFORMER "Ernesto Rodrigues, Guilherme Rodrigues, Carlos Santos, Andrew Drury"
INDEX 00 11:21:19
FILE "02 - Good Dog, Cookie.wav" WAVE
INDEX 01 00:00:00
TRACK 03 AUDIO
TITLE "Adamant Distances"
PERFORMER "Ernesto Rodrigues, Guilherme Rodrigues, Carlos Santos, Andrew Drury"
INDEX 00 15:00:20
FILE "03 - Adamant Distances.wav" WAVE
INDEX 01 00:00:00
TRACK 04 AUDIO
TITLE "Many Happy Returns"
PERFORMER "Ernesto Rodrigues, Guilherme Rodrigues, Carlos Santos, Andrew Drury"
INDEX 00 12:40:46
FILE "04 - Many Happy Returns.wav" WAVE
INDEX 01 00:00:00
 
Лог проверки качества
d:\>d:\aucdtect -d/-m0 d:\zzz\*.wav
auCDtect: CD records authenticity detector, version 0.8.2
Copyright (c) 2004 Oleg Berngardt. All rights reserved.
Copyright (c) 2004 Alexander Djourik. All rights reserved.
------------------------------------------------------------
Processing file: [01. Street Food.wav]
------------------------------------------------------------
This track looks like CDDA with probability 100%
------------------------------------------------------------
Processing file: [02. Good Dog, Cookie.wav]
------------------------------------------------------------
This track looks like CDDA with probability 100%
------------------------------------------------------------
Processing file: [03. Adamant Distances.wav]
------------------------------------------------------------
This track looks like CDDA with probability 100%
------------------------------------------------------------
Processing file: [04. Many Happy Returns.wav]
------------------------------------------------------------
This track looks like CDDA with probability 100%
------------------------------------------------------------
Final Conclusion:
------------------------------------------------------------
These tracks looks like CDDA with probability 100%
Доп. информация:
 
Album Info & AMG Review
Recorded by Diogo Tavares on 28/10/07 at Tcha 3
Mixed and mastered by Carlos Santos
Graphic design by Carlos Santos
Production by Ernesto Rodrigues
Special thanks to Gabriel Ferrandini
The title of this album translates to "Perpetual Return," an apt phrase to describe how this whole free improvisation session seems to revolve around a small number of sounds. The gritting high-pressured bowing of Ernesto Rodrigues (on viola) and tick-tock bow-on-wood playing of Guilherme Rodrigues (cello) provide the album's core, its soul, its vaguely haunted house-like atmosphere. Carlos Santos' electronics shake things up, introducing alien sounds, unpredictable swirls, and bits of noise that attach themselves to the other instrumentalists' work. Percussionist Andrew Drury adds scraping and brushing sounds, playing the ghost in an already ghostly machine. Eterno Retorno is a strong album with a clearly defined atmosphere and sharp interaction. It is also a very demanding record, because there is a lot happening at low volume, over long periods of time. The quartet may be a bit too faithful to their idea of what they should sound like, but "Street Food" and "Many Happy Returns" are powerfully disturbing pieces of quiet improvisation. The Rodrigueses have developed into a tightly fused string duo, something unique in the field of free improvisation. - Francois Couture, AMG
 
Состав
Ernesto Rodrigues: viola
Guilherme Rodrigues: cello
Carlos Santos: electronics
Andrew Drury: percussion
По всем вопросам пишите личное сообщение пользователю M0p94ok.
10:02
301
Нет комментариев. Ваш будет первым!