Вы используете незарегистрированную версию компонента "Вкладки"!

Поиск

(Avant-Garde Jazz, Free Improvisation, Electroacoustic, Creative Sources) [CD] Ernesto Rodrigues, Neil Davidson, Guilherme Rodrigues, Hernani Faustino - Fower - 2009, FLAC (tracks+.cue), lossless

(Avant-Garde Jazz, Free Improvisation, Electroacoustic, Creative Sources) [CD] Ernesto Rodrigues, Neil Davidson, Guilherme Rodrigues, Hernani Faustino - Fower - 2009, FLAC (tracks+.cue), lossless
Треклист:
Ernesto Rodrigues, Neil Davidson, Guilherme Rodrigues, Hernani Faustino / Fower
Жанр: Avant-Garde Jazz, Free Improvisation, Electroacoustic, Creative Sources
Носитель: CD
Страна-производитель диска (релиза): Portugal
Год издания: 2009
Издатель (лейбл): Creative Sources
Номер по каталогу: cs 161 cd
Страна исполнителя (группы): Portugal, UK
Аудиокодек: FLAC (*.flac)
Тип рипа: tracks+.cue
Битрейт аудио: lossless
Продолжительность: 00:40:52
Источник (релизер): свой фирменный диск
Наличие сканов в содержимом раздачи:
Треклист:
1. Heuch
2. Haugh
3. Hume
 
Лог создания рипа
Exact Audio Copy V1.0 beta 3 from 29. August 2011
EAC extraction logfile from 16. December 2014, 22:12
Ernesto Rodrigues, Neil Davidson, Guilherme Rodrigues, Hernani Faustino / Fower
Used drive : PIONEER DVD-RW DVR-115D Adapter: 0 ID: 0
Read mode : Secure
Utilize accurate stream : Yes
Defeat audio cache : Yes
Make use of C2 pointers : No
Read offset correction : 48
Overread into Lead-In and Lead-Out : No
Fill up missing offset samples with silence : Yes
Delete leading and trailing silent blocks : No
Null samples used in CRC calculations : Yes
Used interface : Installed external ASPI interface
Gap handling : Appended to previous track
Used output format : User Defined Encoder
Selected bitrate : 768 kBit/s
Quality : High
Add ID3 tag : No
Command line compressor : C:\Program Files\Exact Audio Copy\Flac\flac.exe
Additional command line options : -6 -V -T "ARTIST=%artist%" -T "TITLE=%title%" -T "ALBUM=%albumtitle%" -T "DATE=%year%" -T "TRACKNUMBER=%tracknr%" -T "GENRE=%genre%" -T "COMMENT=%comment%" -T "BAND=%albuminterpret%" -T "COMPOSER=%composer%" %haslyrics%--tag-from-file=LYRICS="%lyricsfile%"%haslyrics% -T "DISCNUMBER=%cdnumber%" -T "TOTALDISCS=%totalcds%" -T "TOTALTRACKS=%numtracks%" %hascover%--picture="%coverfile%"%hascover% %source% -o %dest%
TOC of the extracted CD
Track | Start | Length | Start sector | End sector
---------------------------------------------------------
1 | 0:00.00 | 24:42.00 | 0 | 111149
2 | 24:42.00 | 11:00.00 | 111150 | 160649
3 | 35:42.00 | 5:10.00 | 160650 | 183899
Track 1
Filename D:\zzz\01 - Heuch.wav
Pre-gap length 0:00:02.00
Peak level 92.3 %
Extraction speed 6.1 X
Track quality 99.9 %
Test CRC 8B6E65DB
Copy CRC 8B6E65DB
Track not present in AccurateRip database
Copy OK
Track 2
Filename D:\zzz\02 - Haugh.wav
Pre-gap length 0:00:04.00
Peak level 87.6 %
Extraction speed 7.2 X
Track quality 99.9 %
Test CRC 6D6F6005
Copy CRC 6D6F6005
Track not present in AccurateRip database
Copy OK
Track 3
Filename D:\zzz\03 - Hume.wav
Pre-gap length 0:00:08.00
Peak level 92.3 %
Extraction speed 7.7 X
Track quality 100.0 %
Test CRC 7E8B402D
Copy CRC 7E8B402D
Track not present in AccurateRip database
Copy OK
None of the tracks are present in the AccurateRip database
No errors occurred
End of status report
==== Log checksum A4F76B7ED57CB668BAB375EA59D173819DCBA9B0C9EA3DB88B132A1D49EB9EF0 ====
 
Содержание индексной карты (.CUE)
REM GENRE "Free Improvisation"
REM DATE 2009
REM DISCID 1E099403
REM COMMENT "ExactAudioCopy v1.0b3"
PERFORMER "Ernesto Rodrigues, Neil Davidson, Guilherme Rodrigues, Hernani Faustino"
TITLE "Fower"
FILE "01 - Heuch.wav" WAVE
TRACK 01 AUDIO
TITLE "Heuch"
PERFORMER "Ernesto Rodrigues, Neil Davidson, Guilherme Rodrigues, Hernani Faustino"
INDEX 01 00:00:00
TRACK 02 AUDIO
TITLE "Haugh"
PERFORMER "Ernesto Rodrigues, Neil Davidson, Guilherme Rodrigues, Hernani Faustino"
INDEX 00 24:38:00
FILE "02 - Haugh.wav" WAVE
INDEX 01 00:00:00
TRACK 03 AUDIO
TITLE "Hume"
PERFORMER "Ernesto Rodrigues, Neil Davidson, Guilherme Rodrigues, Hernani Faustino"
INDEX 00 10:52:00
FILE "03 - Hume.wav" WAVE
INDEX 01 00:00:00
 
Лог проверки качества
d:\>d:\aucdtect -d/-m0 d:\zzz\*.wav
auCDtect: CD records authenticity detector, version 0.8.2
Copyright (c) 2004 Oleg Berngardt. All rights reserved.
Copyright (c) 2004 Alexander Djourik. All rights reserved.
------------------------------------------------------------
Processing file: [01. Heuch.wav]
------------------------------------------------------------
This track looks like CDDA with probability 100%
------------------------------------------------------------
Processing file: [02. Haugh.wav]
------------------------------------------------------------
This track looks like CDDA with probability 100%
------------------------------------------------------------
Processing file: [03. Hume.wav]
------------------------------------------------------------
This track looks like CDDA with probability 100%
------------------------------------------------------------
Final Conclusion:
------------------------------------------------------------
These tracks looks like CDDA with probability 100%
Доп. информация:
 
Album Info & Review
Recording: Diogo Tavares at Tcha3 on the 18th November 2007
Mix and master: Carlos Santos and Ernesto Rodrigues
Photography: Maria Castro
Graphic design: Carlos Santos
Production: Ernesto Rodrigues
Looking back over recent posts this morning it occurred to me that it has been a good while since I wrote about any acoustic improv, and even longer since I took a Creative Sources disc from the pile to play. Tonight then I have been listening to Fower, the latest release on Creative Sources by the quartet of Neil Davidson, (acoustic guitar) Ernesto and Guilherme Rodrigues (viola and cello respectively) and Hernani Faustino (double bass). The first three names in this version on a string quartet are all favurites of these pages, the last completely new to me.
Split into three tracks, Fower is a bit of a bumpy ride, not exactly easy listening. All of the musicians seem to grind and scrape at their instruments rather than stroke and caress them. The instruments sound as if they have been recorded up close and so everything sits in the foreground of the recording, the four musicians nudging and shoving each other’s sounds around in the search for space, the music formed from this interactive game. The first piece on Fower, named Heuch, and lasting some twenty-two minutes is a gritty, dry affair with a serrated edge. While it is always clear that we are listening to four wooden boxes with strings stretched across them, it is quite difficult to pin down sounds to particular musicians. There is little silence, and what we hear is a constantly changing series of tight musical forms made up of the musicians’ muscular, jagged inputs. While it isn’t particularly loud (its certainly not quiet either) and the sounds are maybe not as harsh as can be heard elsewhere, there is a certain aridity to the music. Like a photoshopped picture with the contrast turned right up very sound is firmly stated, and the music feels like it is has been scratched directly into the surface of the CD, such is the immediacy of the music. Mostly the instruments seem to be played with bows, but they do not all sound traditionally tuned, and their body seems to be played as often as the strings, the closely miked recording amplifying the slightest scratch and scrape into something bigger. While the four musicians are very much in tune with one another, and they merge together easily into the one writhing mass of dry sound it is hard to pick out particular voices in the music, with perhaps only Davidson’s guitar easy to identify in places.
The second track named Haugh clocks in at half the length of the first, and at just over five minutes the final Hume is half as long again. This last piece is perhaps the quietest of the trio, still utilising similar sounds but with a little more air in the music and a more delicate sense of structure. While the first two tracks barge their way out of the speaker and roll about the floor fighting, Hume sounds like a more considered affair, still full of twists and turns, but with a more composed feel. Overall Fower is a tough listen, something that needs to be engaged with fully as a listener to take anything from it. Closing your eyes and really getting to grips with the music, almost literally wrestling with its sinewy vigour reaps rewards however. The interplay between the quartet is excellent, and only under close scrutiny is this completely apparent, as picking apart Fower’s vibrating, grinding structures reveals how well these four musicians are listening to, and anticipating each other’s moves. Fower takes some work, but spend time with it and it pays you back with interest. This isn’t an album that will appear in anyone’s end of year lists, and won’t get many mentions in the hip and trendy corners of the internet, but its one that fans of good, robust and detailed improvised music should pay attention to. - Richard Pinnell, The Watchful Ear
 
Состав
Ernesto Rodrigues: viola
Neil Davidson: acoustic guitar
Guilherme Rodrigues: cello
Hernani Faustino: double bass
По всем вопросам пишите личное сообщение пользователю M0p94ok.
10:03
257
Нет комментариев. Ваш будет первым!