Вы используете незарегистрированную версию компонента "Вкладки"!

Поиск

(free jazz) [cd] Matt Bauder - Day in Pictures 2010, FLAC (tracks+.cue), lossless

(free jazz) [cd] Matt Bauder - Day in Pictures 2010, FLAC (tracks+.cue), lossless
Треклист:
(free jazz, Clean Feed) [cd] Matt Bauder - Day in Pictures 2010, FLAC (tracks+.cue), lossless


Matt Bauder - Day in Pictures 2010

Жанр: free jazz
Год выпуска: 2010
Издатель (лейбл):Clean Feed /CF 210
Формат: FLAC (tracks+.cue)
Битрейт аудио: lossless
Продолжительность 54`40
Источник: -
Angelica Sanchez (p), Jason Ajemian (b), Matt Bauder (ts), Nate Wooley (t), Tomas Fujiwara (d)

tracks

1. Cleopatra's Mood 7:14
2. Parks After Dark 11:17
3. January Melody 4:55
4. Reborn not Gone 6:22
5. Bill and Maza 13:14
6. Two Lucks 8:55
7. Willoughby 2:40


 
.accurip
[CUETools log; Date: 07/10/14 17:31:29; Version: 2.1.4]
[AccurateRip ID: 000fb5e6-005e4422-510cd007] found.
Track [ CRC | V2 ] Status
01 [08a4b705|6395e3f9] (0+1/2) Accurately ripped
02 [18be082d|2a1a501d] (0+2/2) Accurately ripped
03 [4f808f61|13fc0fc2] (0+2/2) Accurately ripped
04 [51dc2b31|541b5ab4] (0+2/2) Accurately ripped
05 [2ecda3ad|7e8c1280] (0+2/2) Accurately ripped
06 [0dd2d799|e0452f69] (0+2/2) Accurately ripped
07 [4a24e5c9|c091d82d] (0+2/2) Accurately ripped
Track Peak [ CRC32 ] [W/O NULL]
-- 97.7 [22B0547F] [D6174092]
01 97.7 [C574B0CF] [332D6659]
02 97.7 [85322084] [011C56D7]
03 97.7 [0CF9D6FC] [1A390A95]
04 97.7 [1EF6770C] [C9CB3134]
05 97.7 [E05EDDA7] [C63E5D39]
06 97.7 [0AC88427] [C458949A]
07 89.6 [E661FB55] [8ACCD7D0]

другие релизы
По всем вопросам пишите личное сообщение пользователю M0p94ok.
08:59
237
Нет комментариев. Ваш будет первым!