Поиск

(Avant-Garde Jazz, Free Improvisation) [CD] Scott Fields Ensemble (Matthias Schubert, Scott Roller, John Hollenbeck) - Samuel - 2009, FLAC (tracks+.cue), lossless

(Avant-Garde Jazz, Free Improvisation) [CD] Scott Fields Ensemble (Matthias Schubert, Scott Roller, John Hollenbeck) - Samuel - 2009, FLAC (tracks+.cue), lossless
Треклист:
Scott Fields Ensemble / Samuel
Жанр: Avant-Garde Jazz, Free Improvisation
Носитель: CD
Страна-производитель диска (релиза): US
Год издания: 2009
Издатель (лейбл): New World Records
Номер по каталогу: 80695-2
Аудиокодек: FLAC (*.flac)
Тип рипа: tracks+.cue
Битрейт аудио: lossless
Продолжительность: 64:57
Источник (релизер): cd
Наличие сканов в содержимом раздачи: нет
Треклист:
1. Not I (24:16)
2. Ghost Trio (19:35)
3. Eh Joe (20:52)
 
Лог создания рипа
Exact Audio Copy V1.0 beta 3 from 29. August 2011
EAC extraction logfile from 5. February 2015, 10:37
Scott Fields Ensemble / Samuel
Used drive : ASUS DRW-24F1ST a Adapter: 0 ID: 0
Read mode : Secure
Utilize accurate stream : Yes
Defeat audio cache : Yes
Make use of C2 pointers : No
Read offset correction : 6
Overread into Lead-In and Lead-Out : No
Fill up missing offset samples with silence : Yes
Delete leading and trailing silent blocks : No
Null samples used in CRC calculations : Yes
Used interface : Native Win32 interface for Win NT & 2000
Gap handling : Appended to previous track
Used output format : User Defined Encoder
Selected bitrate : 320 kBit/s
Quality : High
Add ID3 tag : No
Command line compressor : D:\Programs\Exact Audio Copy\Flac\flac.exe
Additional command line options : -V -8 -T "Genre=%genre%" -T "Artist=%artist%" -T "Title=%title%" -T "Album=%albumtitle%" -T "Date=%year%" -T "Tracknumber=%tracknr%" -T "Comment=%comment%" %source%
TOC of the extracted CD
Track | Start | Length | Start sector | End sector
---------------------------------------------------------
1 | 0:00.00 | 24:24.54 | 0 | 109853
2 | 24:24.54 | 19:40.62 | 109854 | 198415
3 | 44:05.41 | 20:52.26 | 198416 | 292341
Track 1
Filename D:\EAC\01 Not I.wav
Pre-gap length 0:00:02.00
Peak level 99.7 %
Extraction speed 6.6 X
Track quality 100.0 %
Test CRC 3B96EF8F
Copy CRC 3B96EF8F
Copy OK
Track 2
Filename D:\EAC\02 Ghost Trio.wav
Pre-gap length 0:00:07.64
Peak level 99.6 %
Extraction speed 8.5 X
Track quality 100.0 %
Test CRC 47EDC6D9
Copy CRC 47EDC6D9
Copy OK
Track 3
Filename D:\EAC\03 Eh Joe.wav
Pre-gap length 0:00:05.55
Peak level 99.6 %
Extraction speed 9.7 X
Track quality 100.0 %
Test CRC 342A36A9
Copy CRC 342A36A9
Copy OK
No errors occurred
End of status report
==== Log checksum 7297EBEBC366601D0C53F1223F865ED6EACFC728BF73FA59F2956BAA77D5FE55 ====
 
Содержание индексной карты (.CUE)
REM GENRE Jazz
REM DATE 2009
REM DISCID 260F3903
REM COMMENT "ExactAudioCopy v1.0b3"
PERFORMER "Scott Fields Ensemble"
TITLE "Samuel "
FILE "01 Not I.wav" WAVE
TRACK 01 AUDIO
TITLE "Not I"
PERFORMER "Scott Fields Ensemble"
INDEX 01 00:00:00
TRACK 02 AUDIO
TITLE "Ghost Trio"
PERFORMER "Scott Fields Ensemble"
INDEX 00 24:16:65
FILE "02 Ghost Trio.wav" WAVE
INDEX 01 00:00:00
TRACK 03 AUDIO
TITLE "Eh Joe"
PERFORMER "Scott Fields Ensemble"
INDEX 00 19:35:07
FILE "03 Eh Joe.wav" WAVE
INDEX 01 00:00:00
Доп. информация: Recorded January 23 and 24, 2009
 
Об альбоме (сборнике)
Samuel is the follow-up to the Scott Fields Ensemble's 2007 release Beckett on the Clean Feed label. Both albums feature Scott Fields' compositions based on plays by Samuel Beckett. Not "inspired by," but "based on"; Fields derives his scores (pitches, chords, rhythms, etc.) from the author's words and narrative devices. At least, that is what the liner notes state. Clearly, Fields is not using these processes as the be-all and end-all of his music, which transcends such preparations. The listener hears little of that in the music itself and, if he or she chooses to bypass the liner notes, will not pick up on it. Fascinating as it may be, these processes don't get in the way of what turns out to be three highly complex compositions of avant-garde jazz, for lack of a better term. The composed aspect of the music is obvious, even though free improvisation plays a key part in the proceedings: unisons and stop-go cues abound, harmonic material is developed much too subtly and delicately to not have been planned ahead, heads pop up in unlikely places. We are somewhere between the large-scale compositions of U.K. bassist Simon H. Fell (mostly his Compilation series) and John Zorn's contemporary classical works. "Ghost Trio" has a slightly jazzier feel while "Eh Joe" is a bit more abstract at first, but all three pieces (the other one is titled "Not I") have one foot in free jazz, the other in non-idiomatic improvisation, and a third one (oh, it's unique enough to have grown a third foot) in a still little-charted territory of very serious non-classical modern composition -- akin to Fred Frith or Jean Derome's most ambitious works. Tenor saxophonist Matthias Schubert often assumes the lead melody, with Fields counterpointing on the electric guitar (his interventions sound random at first, but close listening quickly reveals an inner logic). Scott Roller shifts back and forth between a bassist's role and a soloist's role. Drummer John Hollenbeck is mostly playing in free improvisation mode, with short episodes of swing, and a noticeable rock-out passage toward the end of "Eh Joe" where he gets to use the kind of chops his Claudia Quintet is based on. Samuel is not an easy record, but the level of musicianship, composition, and ensemble playing commands respect, admiration, and an award. It is also quite addictive, as each listen reveals new details of the work's architecture.
 
Состав
Cello – Scott Roller
Electric Guitar – Scott Fields
Percussion – John Hollenbeck
Tenor Saxophone – Matthias Schubert
По всем вопросам пишите личное сообщение пользователю M0p94ok.
09:00
261
Нет комментариев. Ваш будет первым!