Вы используете незарегистрированную версию компонента "Вкладки"!

Поиск

(free jazz) [cd] Kali Z. Fasteau - Animal Grace (2010), FLAC (tracks+.cue), lossless

(free jazz) [cd] Kali Z. Fasteau - Animal Grace (2010), FLAC (tracks+.cue), lossless
Треклист:
(free jazz) [cd] Kali Z. Fasteau - Animal Grace (2010), FLAC (tracks+.cue), lossless


Kali Z. Fasteau - Animal Grace (2010)

Жанр: free jazz
Год выпуска: 2010
Издатель (лейбл)::Flying Note/FNCD 9014
Формат: FLAC (tracks+.cue)
Битрейт аудио: lossless
Продолжительность 1`04`34
Источник: what.cd

tracks

1 Impulse
2. Cultivation
3. Swans' Flight
4. All Things
5. Mongczi's Laughter
6. Past Future Present
7. A Gift
8. Airstreams
9. They Speak Through Me
10. Melting Ice
11. Jumping on the Drums
12. From Above


 
.log
Exact Audio Copy V1.0 beta 3 from 29. August 2011
EAC extraction logfile from 27. June 2015, 17:59
Kali Z. Fasteau / Animal Grace
Used drive : HL-DT-STDVDRAM SP60NB50 Adapter: 0 ID: 0
Read mode : Secure
Utilize accurate stream : Yes
Defeat audio cache : Yes
Make use of C2 pointers : No
Read offset correction : 6
Overread into Lead-In and Lead-Out : No
Fill up missing offset samples with silence : Yes
Delete leading and trailing silent blocks : No
Null samples used in CRC calculations : Yes
Used interface : Native Win32 interface for Win NT & 2000
Gap handling : Appended to previous track
Used output format : User Defined Encoder
Selected bitrate : 1024 kBit/s
Quality : High
Add ID3 tag : No
Command line compressor : C:\Program Files (x86)\FLAC\flac.exe
Additional command line options : -8 -V -T "ARTIST=%artist%" -T "TITLE=%title%" -T "ALBUM=%albumtitle%" -T "DATE=%year%" -T "TRACKNUMBER=%tracknr%" -T "GENRE=%genre%" -T "PERFORMER=%albuminterpret%" -T "COMPOSER=%composer%" %haslyrics%--tag-from-file=LYRICS="%lyricsfile%"%haslyrics% -T "ALBUMARTIST=%albumartist%" -T "DISCNUMBER=%cdnumber%" -T "TOTALDISCS=%totalcds%" -T "TOTALTRACKS=%numtracks%" -T "COMMENT=%comment%" %source% -o %dest%
TOC of the extracted CD
Track | Start | Length | Start sector | End sector
---------------------------------------------------------
1 | 0:00.00 | 5:20.10 | 0 | 24009
2 | 5:20.10 | 6:09.29 | 24010 | 51713
3 | 11:29.39 | 3:15.03 | 51714 | 66341
4 | 14:44.42 | 6:30.24 | 66342 | 95615
5 | 21:14.66 | 6:21.46 | 95616 | 124236
6 | 27:36.37 | 5:36.41 | 124237 | 149477
7 | 33:13.03 | 6:00.03 | 149478 | 176480
8 | 39:13.06 | 3:57.03 | 176481 | 194258
9 | 43:10.09 | 5:04.07 | 194259 | 217065
10 | 48:14.16 | 1:49.11 | 217066 | 225251
11 | 50:03.27 | 7:39.45 | 225252 | 259721
12 | 57:42.72 | 6:51.35 | 259722 | 290581
Track 1
Filename C:\EAC Rips\Kali Z. Fasteau - Animal Grace (2010) [FLAC]\01 Impulse.wav
Pre-gap length 0:00:02.00
Peak level 100.0 %
Extraction speed 1.2 X
Track quality 100.0 %
Test CRC EEB953A0
Copy CRC EEB953A0
Accurately ripped (confidence 2) [F98ED769] (AR v2)
Copy OK
Track 2
Filename C:\EAC Rips\Kali Z. Fasteau - Animal Grace (2010) [FLAC]\02 Cultivation.wav
Peak level 98.7 %
Extraction speed 1.4 X
Track quality 100.0 %
Test CRC D501C87A
Copy CRC D501C87A
Accurately ripped (confidence 2) [6B0B157E] (AR v2)
Copy OK
Track 3
Filename C:\EAC Rips\Kali Z. Fasteau - Animal Grace (2010) [FLAC]\03 Swans' Flight.wav
Peak level 88.0 %
Extraction speed 1.5 X
Track quality 100.0 %
Test CRC 39C092C2
Copy CRC 39C092C2
Accurately ripped (confidence 2) [456236AD] (AR v2)
Copy OK
Track 4
Filename C:\EAC Rips\Kali Z. Fasteau - Animal Grace (2010) [FLAC]\04 All Things.wav
Peak level 95.5 %
Extraction speed 1.7 X
Track quality 100.0 %
Test CRC E2FFC3D1
Copy CRC E2FFC3D1
Accurately ripped (confidence 2) [27AF849A] (AR v2)
Copy OK
Track 5
Filename C:\EAC Rips\Kali Z. Fasteau - Animal Grace (2010) [FLAC]\05 Mongezi's Laughter.wav
Peak level 98.5 %
Extraction speed 1.9 X
Track quality 100.0 %
Test CRC 2F19C736
Copy CRC 2F19C736
Accurately ripped (confidence 2) [B2E3777A] (AR v2)
Copy OK
Track 6
Filename C:\EAC Rips\Kali Z. Fasteau - Animal Grace (2010) [FLAC]\06 Past Future Present.wav
Peak level 92.8 %
Extraction speed 2.0 X
Track quality 100.0 %
Test CRC C466F0A3
Copy CRC C466F0A3
Accurately ripped (confidence 2) [1C196740] (AR v2)
Copy OK
Track 7
Filename C:\EAC Rips\Kali Z. Fasteau - Animal Grace (2010) [FLAC]\07 A Gift.wav
Peak level 99.8 %
Extraction speed 2.1 X
Track quality 100.0 %
Test CRC 8842C66B
Copy CRC 8842C66B
Accurately ripped (confidence 2) [BF0AB684] (AR v2)
Copy OK
Track 8
Filename C:\EAC Rips\Kali Z. Fasteau - Animal Grace (2010) [FLAC]\08 Airstreams.wav
Peak level 79.5 %
Extraction speed 1.9 X
Track quality 99.9 %
Test CRC E417FD36
Copy CRC E417FD36
Accurately ripped (confidence 2) [4B110ABD] (AR v2)
Copy OK
Track 9
Filename C:\EAC Rips\Kali Z. Fasteau - Animal Grace (2010) [FLAC]\09 They Speak Through Me.wav
Peak level 88.6 %
Extraction speed 2.1 X
Track quality 99.9 %
Test CRC 0E77EC5D
Copy CRC 0E77EC5D
Accurately ripped (confidence 2) [3DD5105F] (AR v2)
Copy OK
Track 10
Filename C:\EAC Rips\Kali Z. Fasteau - Animal Grace (2010) [FLAC]\10 Melting Ice.wav
Peak level 68.9 %
Extraction speed 1.9 X
Track quality 100.0 %
Test CRC 69464C3B
Copy CRC 69464C3B
Accurately ripped (confidence 2) [728E3ACB] (AR v2)
Copy OK
Track 11
Filename C:\EAC Rips\Kali Z. Fasteau - Animal Grace (2010) [FLAC]\11 Jumping on the Drums.wav
Peak level 99.7 %
Extraction speed 2.5 X
Track quality 100.0 %
Test CRC DB88A9AB
Copy CRC DB88A9AB
Accurately ripped (confidence 2) [87E28B4F] (AR v2)
Copy OK
Track 12
Filename C:\EAC Rips\Kali Z. Fasteau - Animal Grace (2010) [FLAC]\12 From Above.wav
Peak level 99.9 %
Extraction speed 2.6 X
Track quality 100.0 %
Test CRC 12E4536C
Copy CRC 12E4536C
Accurately ripped (confidence 2) [DED86F3C] (AR v2)
Copy OK
All tracks accurately ripped
No errors occurred
End of status report
---- CUETools DB Plugin V2.1.3
[CTDB TOCID: YbU2Fj4YoSSsjnB8T7x.0sbrC2I-] disk not present in database, Submit result: YbU2Fj4YoSSsjnB8T7x.0sbrC2I- has been uploaded
==== Log checksum AD4A33A2A48E5E42D74A3819A7B4FAC75D0934DF6378F83A77E779405518D463 ====
 
.cue
REM GENRE Jazz
REM DATE 2010
REM DISCID BE0F220C
REM COMMENT "ExactAudioCopy v1.0b3"
PERFORMER "Kali Z. Fasteau"
TITLE "Animal Grace"
FILE "01 Impulse.wav" WAVE
TRACK 01 AUDIO
TITLE "Impulse"
PERFORMER "Kali Z. Fasteau"
ISRC USE3Z1000001
INDEX 01 00:00:00
FILE "02 Cultivation.wav" WAVE
TRACK 02 AUDIO
TITLE "Cultivation"
PERFORMER "Kali Z. Fasteau"
ISRC USE3Z1000002
INDEX 01 00:00:00
FILE "03 Swans' Flight.wav" WAVE
TRACK 03 AUDIO
TITLE "Swans' Flight"
PERFORMER "Kali Z. Fasteau"
ISRC USE3Z1000003
INDEX 01 00:00:00
FILE "04 All Things.wav" WAVE
TRACK 04 AUDIO
TITLE "All Things"
PERFORMER "Kali Z. Fasteau"
ISRC USE3Z1000004
INDEX 01 00:00:00
FILE "05 Mongezi's Laughter.wav" WAVE
TRACK 05 AUDIO
TITLE "Mongezi's Laughter"
PERFORMER "Kali Z. Fasteau"
ISRC USE3Z1000005
INDEX 01 00:00:00
FILE "06 Past Future Present.wav" WAVE
TRACK 06 AUDIO
TITLE "Past Future Present"
PERFORMER "Kali Z. Fasteau"
ISRC USE3Z1000006
INDEX 01 00:00:00
FILE "07 A Gift.wav" WAVE
TRACK 07 AUDIO
TITLE "A Gift"
PERFORMER "Kali Z. Fasteau"
ISRC USE3Z1000007
INDEX 01 00:00:00
FILE "08 Airstreams.wav" WAVE
TRACK 08 AUDIO
TITLE "Airstreams"
PERFORMER "Kali Z. Fasteau"
ISRC USE3Z1000008
INDEX 01 00:00:00
FILE "09 They Speak Through Me.wav" WAVE
TRACK 09 AUDIO
TITLE "They Speak Through Me"
PERFORMER "Kali Z. Fasteau"
ISRC USE3Z1000009
INDEX 01 00:00:00
FILE "10 Melting Ice.wav" WAVE
TRACK 10 AUDIO
TITLE "Melting Ice"
PERFORMER "Kali Z. Fasteau"
ISRC USE3Z1000009
INDEX 01 00:00:00
FILE "11 Jumping on the Drums.wav" WAVE
TRACK 11 AUDIO
TITLE "Jumping on the Drums"
PERFORMER "Kali Z. Fasteau"
ISRC USE3Z1000011
INDEX 01 00:00:00
FILE "12 From Above.wav" WAVE
TRACK 12 AUDIO
TITLE "From Above"
PERFORMER "Kali Z. Fasteau"
ISRC USE3Z1000012
INDEX 01 00:00:00

http://www.discogs.com/Kali-Z-Fasteau-Animal-Grace/release/3988146
другие релизы
По всем вопросам пишите личное сообщение пользователю M0p94ok.
14:14
160
Нет комментариев. Ваш будет первым!