Вы используете незарегистрированную версию компонента "Вкладки"!

Поиск

(free jazz) [cd] Jemeel Moondoc Trio - Tri-P-Let (1996), FLAC (tracks+.cue), lossless

(free jazz) [cd] Jemeel Moondoc Trio - Tri-P-Let (1996), FLAC (tracks+.cue), lossless
Треклист:
(free jazz) [cd] Jemeel Moondoc Trio - Tri-P-Let (1996), FLAC (tracks+.cue), lossless


Jemeel Moondoc Trio - Tri-P-Let (1996)

Жанр: free jazz
Год выпуска: 1996
Издатель (лейбл):Eremite Records/MTE01
Формат: FLAC (tracks+.cue)
Битрейт аудио: lossless
Продолжительность
Источник: what.cd

tracks

1 Triplet 5:48
2 Another One The Hard Way 14:13
3 Improvisation #61696 11:34
4 Campbell's Soup 11:50
5 Ruby's Riches 11:08


 
.log
Exact Audio Copy V1.0 beta 3 from 29. August 2011
EAC extraction logfile from 6. June 2015, 19:24
Jemeel Moondoc Trio / Tri-P-Let
Used drive : HL-DT-STDVDRAM SP60NB50 Adapter: 0 ID: 0
Read mode : Secure
Utilize accurate stream : Yes
Defeat audio cache : Yes
Make use of C2 pointers : No
Read offset correction : 6
Overread into Lead-In and Lead-Out : No
Fill up missing offset samples with silence : Yes
Delete leading and trailing silent blocks : No
Null samples used in CRC calculations : Yes
Used interface : Native Win32 interface for Win NT & 2000
Gap handling : Appended to previous track
Used output format : User Defined Encoder
Selected bitrate : 1024 kBit/s
Quality : High
Add ID3 tag : No
Command line compressor : C:\Program Files (x86)\FLAC\flac.exe
Additional command line options : -8 -V -T "ARTIST=%artist%" -T "TITLE=%title%" -T "ALBUM=%albumtitle%" -T "DATE=%year%" -T "TRACKNUMBER=%tracknr%" -T "GENRE=%genre%" -T "PERFORMER=%albuminterpret%" -T "COMPOSER=%composer%" %haslyrics%--tag-from-file=LYRICS="%lyricsfile%"%haslyrics% -T "ALBUMARTIST=%albumartist%" -T "DISCNUMBER=%cdnumber%" -T "TOTALDISCS=%totalcds%" -T "TOTALTRACKS=%numtracks%" -T "COMMENT=%comment%" %source% -o %dest%
TOC of the extracted CD
Track | Start | Length | Start sector | End sector
---------------------------------------------------------
1 | 0:00.00 | 5:44.17 | 0 | 25816
2 | 5:44.17 | 13:52.13 | 25817 | 88229
3 | 19:36.30 | 11:18.30 | 88230 | 139109
4 | 30:54.60 | 11:32.30 | 139110 | 191039
5 | 42:27.15 | 10:51.02 | 191040 | 239866
Track 1
Filename C:\EAC Rips\Jemeel Moondoc Trio - Tri-P-Let (1996) [FLAC]\01 Triplet.wav
Pre-gap length 0:00:02.00
Peak level 100.0 %
Extraction speed 1.2 X
Track quality 100.0 %
Test CRC C051DFD2
Copy CRC C051DFD2
Accurately ripped (confidence 2) [18E360FD] (AR v2)
Copy OK
Track 2
Filename C:\EAC Rips\Jemeel Moondoc Trio - Tri-P-Let (1996) [FLAC]\02 Another One the Hard Way.wav
Peak level 84.3 %
Extraction speed 1.6 X
Track quality 100.0 %
Test CRC 67E69FC8
Copy CRC 67E69FC8
Accurately ripped (confidence 2) [A545A6A0] (AR v2)
Copy OK
Track 3
Filename C:\EAC Rips\Jemeel Moondoc Trio - Tri-P-Let (1996) [FLAC]\03 Improv. #61696.wav
Peak level 100.0 %
Extraction speed 1.9 X
Track quality 100.0 %
Test CRC 83454FCC
Copy CRC 83454FCC
Accurately ripped (confidence 2) [6E8B4117] (AR v2)
Copy OK
Track 4
Filename C:\EAC Rips\Jemeel Moondoc Trio - Tri-P-Let (1996) [FLAC]\04 Campbell's Soup.wav
Peak level 100.0 %
Extraction speed 2.2 X
Track quality 100.0 %
Test CRC 5BA1E801
Copy CRC 5BA1E801
Accurately ripped (confidence 2) [24995533] (AR v2)
Copy OK
Track 5
Filename C:\EAC Rips\Jemeel Moondoc Trio - Tri-P-Let (1996) [FLAC]\05 Ruby's Riches.wav
Peak level 86.0 %
Extraction speed 2.4 X
Track quality 100.0 %
Test CRC 9574EE9A
Copy CRC 9574EE9A
Accurately ripped (confidence 2) [7C62C880] (AR v2)
Copy OK
All tracks accurately ripped
No errors occurred
End of status report
---- CUETools DB Plugin V2.1.3
[CTDB TOCID: pbavJuzA1z6LKty_CCwKXguJERk-] found, Submit result: pbavJuzA1z6LKty_CCwKXguJERk- has been confirmed
[b5a3b85b] (1/1) Accurately ripped
==== Log checksum DAEA4D646194D169CD6D023F8201BFD621B72E1DE458A48595CA9100DA5D2308 ====
 
.cue
REM GENRE "Free Jazz"
REM DATE 1996
REM DISCID 480C7E05
REM COMMENT "ExactAudioCopy v1.0b3"
CATALOG 0000000000000
PERFORMER "Jemeel Moondoc Trio"
TITLE "Tri-P-Let"
FILE "01 Triplet.wav" WAVE
TRACK 01 AUDIO
TITLE "Triplet"
PERFORMER "Jemeel Moondoc Trio"
INDEX 01 00:00:00
FILE "02 Another One the Hard Way.wav" WAVE
TRACK 02 AUDIO
TITLE "Another One the Hard Way"
PERFORMER "Jemeel Moondoc Trio"
INDEX 01 00:00:00
FILE "03 Improv. #61696.wav" WAVE
TRACK 03 AUDIO
TITLE "Improv. #61696"
PERFORMER "Jemeel Moondoc Trio"
INDEX 01 00:00:00
FILE "04 Campbell's Soup.wav" WAVE
TRACK 04 AUDIO
TITLE "Campbell's Soup"
PERFORMER "Jemeel Moondoc Trio"
INDEX 01 00:00:00
FILE "05 Ruby's Riches.wav" WAVE
TRACK 05 AUDIO
TITLE "Ruby's Riches"
PERFORMER "Jemeel Moondoc Trio"
INDEX 01 00:00:00

http://www.discogs.com/Jemeel-Moondoc-Trio-Tri-P-Let/release/2640320
другие релизы
По всем вопросам пишите личное сообщение пользователю M0p94ok.
14:13
230
Нет комментариев. Ваш будет первым!