Поиск

(free jazz) [cd] Zusaan Kali Fasteau - Prophecy (1993), FLAC (tracks+.cue), lossless

(free jazz) [cd] Zusaan Kali Fasteau - Prophecy (1993), FLAC (tracks+.cue), lossless
Треклист:
(free jazz) [cd] Zusaan Kali Fasteau - Prophecy (1993), FLAC (tracks+.cue), lossless


Zusaan Kali Fasteau - Prophecy (1993)

Жанр:free jazz
Год выпуска: 1993
Издатель (лейбл): Flying Note / 9003
Формат: FLAC (tracks+.cue)
Битрейт аудио: lossless
Продолжительность 1`03`39
Источник: what.cd
Newman Baker Drums
Ronnie Burrage Drums
Zusaan Kali Fasteau Arranger, Cello, Drums, Flute, Gong, Kaval, Liner Notes, Mizmar, Ney, Piano, Primary Artist, Sanza, Sax (Soprano), Shakuhachi, Sheng, Synthesizer, Timpani, Voices
Ron McBee African Percussion, Berimbau
William Parker Balafon, Double Bass, Liner Notes
Badal Roy Tabla

tracks

1. Prophecy
2. Nomads' Festival
3. inner Ear
4. Lunar Wisdom
5. Invocation
6. Encoding Delight
7. Birdsong
8. The Message
9. The Gyre
10. Sonic Deep
11. Monsoon
12. Celestial Sea
13. Curved Space
14. Cosmopolis
15. Benevolence


 
.log
Exact Audio Copy V1.0 beta 3 from 29. August 2011
EAC extraction logfile from 27. June 2015, 22:53
Zusaan Kali Fasteau / Prophecy
Used drive : HL-DT-STDVDRAM SP60NB50 Adapter: 0 ID: 0
Read mode : Secure
Utilize accurate stream : Yes
Defeat audio cache : Yes
Make use of C2 pointers : No
Read offset correction : 6
Overread into Lead-In and Lead-Out : No
Fill up missing offset samples with silence : Yes
Delete leading and trailing silent blocks : No
Null samples used in CRC calculations : Yes
Used interface : Native Win32 interface for Win NT & 2000
Gap handling : Appended to previous track
Used output format : User Defined Encoder
Selected bitrate : 1024 kBit/s
Quality : High
Add ID3 tag : No
Command line compressor : C:\Program Files (x86)\FLAC\flac.exe
Additional command line options : -8 -V -T "ARTIST=%artist%" -T "TITLE=%title%" -T "ALBUM=%albumtitle%" -T "DATE=%year%" -T "TRACKNUMBER=%tracknr%" -T "GENRE=%genre%" -T "PERFORMER=%albuminterpret%" -T "COMPOSER=%composer%" %haslyrics%--tag-from-file=LYRICS="%lyricsfile%"%haslyrics% -T "ALBUMARTIST=%albumartist%" -T "DISCNUMBER=%cdnumber%" -T "TOTALDISCS=%totalcds%" -T "TOTALTRACKS=%numtracks%" -T "COMMENT=%comment%" %source% -o %dest%
TOC of the extracted CD
Track | Start | Length | Start sector | End sector
---------------------------------------------------------
1 | 0:00.00 | 3:52.63 | 0 | 17462
2 | 3:52.63 | 2:58.30 | 17463 | 30842
3 | 6:51.18 | 3:19.52 | 30843 | 45819
4 | 10:10.70 | 5:24.73 | 45820 | 70192
5 | 15:35.68 | 3:06.22 | 70193 | 84164
6 | 18:42.15 | 3:55.15 | 84165 | 101804
7 | 22:37.30 | 6:38.13 | 101805 | 131667
8 | 29:15.43 | 3:16.22 | 131668 | 146389
9 | 32:31.65 | 5:32.15 | 146390 | 171304
10 | 38:04.05 | 5:27.40 | 171305 | 195869
11 | 43:31.45 | 3:28.25 | 195870 | 211494
12 | 46:59.70 | 4:01.13 | 211495 | 229582
13 | 51:01.08 | 5:06.60 | 229583 | 252592
14 | 56:07.68 | 4:07.62 | 252593 | 271179
15 | 60:15.55 | 3:23.05 | 271180 | 286409
Track 1
Filename C:\EAC Rips\Zusaan Kali Fasteau - Prophecy (1993) [FLAC]\01 Prophecy.wav
Pre-gap length 0:00:02.00
Peak level 100.0 %
Extraction speed 1.2 X
Track quality 100.0 %
Test CRC DC9A9264
Copy CRC DC9A9264
Track not present in AccurateRip database
Copy OK
Track 2
Filename C:\EAC Rips\Zusaan Kali Fasteau - Prophecy (1993) [FLAC]\02 Nomads' Festival.wav
Pre-gap length 0:00:00.70
Peak level 68.7 %
Extraction speed 1.3 X
Track quality 100.0 %
Test CRC 364A35D1
Copy CRC 364A35D1
Track not present in AccurateRip database
Copy OK
Track 3
Filename C:\EAC Rips\Zusaan Kali Fasteau - Prophecy (1993) [FLAC]\03 Inner Ear.wav
Pre-gap length 0:00:00.46
Peak level 73.4 %
Extraction speed 1.4 X
Track quality 100.0 %
Test CRC E65123FD
Copy CRC E65123FD
Track not present in AccurateRip database
Copy OK
Track 4
Filename C:\EAC Rips\Zusaan Kali Fasteau - Prophecy (1993) [FLAC]\04 Lunar Wisdom.wav
Pre-gap length 0:00:00.53
Peak level 94.4 %
Extraction speed 1.6 X
Track quality 100.0 %
Test CRC 040F04A7
Copy CRC 040F04A7
Track not present in AccurateRip database
Copy OK
Track 5
Filename C:\EAC Rips\Zusaan Kali Fasteau - Prophecy (1993) [FLAC]\05 Invocation.wav
Pre-gap length 0:00:00.57
Peak level 70.2 %
Extraction speed 1.6 X
Track quality 100.0 %
Test CRC 40729BE2
Copy CRC 40729BE2
Track not present in AccurateRip database
Copy OK
Track 6
Filename C:\EAC Rips\Zusaan Kali Fasteau - Prophecy (1993) [FLAC]\06 Encoding Delight.wav
Pre-gap length 0:00:00.56
Peak level 92.1 %
Extraction speed 1.8 X
Track quality 100.0 %
Test CRC 17996FD5
Copy CRC 17996FD5
Track not present in AccurateRip database
Copy OK
Track 7
Filename C:\EAC Rips\Zusaan Kali Fasteau - Prophecy (1993) [FLAC]\07 Birdsong.wav
Pre-gap length 0:00:00.49
Peak level 79.4 %
Extraction speed 2.0 X
Track quality 100.0 %
Test CRC 62182FED
Copy CRC 62182FED
Track not present in AccurateRip database
Copy OK
Track 8
Filename C:\EAC Rips\Zusaan Kali Fasteau - Prophecy (1993) [FLAC]\08 The Message.wav
Pre-gap length 0:00:00.44
Peak level 56.2 %
Extraction speed 1.9 X
Track quality 100.0 %
Test CRC 19D2ACDB
Copy CRC 19D2ACDB
Track not present in AccurateRip database
Copy OK
Track 9
Filename C:\EAC Rips\Zusaan Kali Fasteau - Prophecy (1993) [FLAC]\09 The Gyre.wav
Pre-gap length 0:00:00.53
Peak level 78.6 %
Extraction speed 2.1 X
Track quality 100.0 %
Test CRC 58754F90
Copy CRC 58754F90
Track not present in AccurateRip database
Copy OK
Track 10
Filename C:\EAC Rips\Zusaan Kali Fasteau - Prophecy (1993) [FLAC]\10 Sonic Deep.wav
Pre-gap length 0:00:00.60
Peak level 86.8 %
Extraction speed 2.2 X
Track quality 100.0 %
Test CRC E8D7A7EC
Copy CRC E8D7A7EC
Track not present in AccurateRip database
Copy OK
Track 11
Filename C:\EAC Rips\Zusaan Kali Fasteau - Prophecy (1993) [FLAC]\11 Monsoon.wav
Pre-gap length 0:00:00.56
Peak level 88.1 %
Extraction speed 2.2 X
Track quality 100.0 %
Test CRC 7CD6C4B3
Copy CRC 7CD6C4B3
Track not present in AccurateRip database
Copy OK
Track 12
Filename C:\EAC Rips\Zusaan Kali Fasteau - Prophecy (1993) [FLAC]\12 Celestial Sea.wav
Pre-gap length 0:00:00.53
Peak level 74.0 %
Extraction speed 2.3 X
Track quality 100.0 %
Test CRC 2CC1F88F
Copy CRC 2CC1F88F
Track not present in AccurateRip database
Copy OK
Track 13
Filename C:\EAC Rips\Zusaan Kali Fasteau - Prophecy (1993) [FLAC]\13 Curved Space.wav
Pre-gap length 0:00:00.57
Peak level 76.4 %
Extraction speed 2.5 X
Track quality 100.0 %
Test CRC EFD5A1AB
Copy CRC EFD5A1AB
Track not present in AccurateRip database
Copy OK
Track 14
Filename C:\EAC Rips\Zusaan Kali Fasteau - Prophecy (1993) [FLAC]\14 Cosmopolis.wav
Pre-gap length 0:00:00.57
Peak level 92.2 %
Extraction speed 2.5 X
Track quality 100.0 %
Test CRC 2B38B3EC
Copy CRC 2B38B3EC
Track not present in AccurateRip database
Copy OK
Track 15
Filename C:\EAC Rips\Zusaan Kali Fasteau - Prophecy (1993) [FLAC]\15 Benevolence.wav
Pre-gap length 0:00:00.56
Peak level 100.0 %
Extraction speed 2.5 X
Track quality 100.0 %
Test CRC E3C66B94
Copy CRC E3C66B94
Track not present in AccurateRip database
Copy OK
None of the tracks are present in the AccurateRip database
No errors occurred
End of status report
---- CUETools DB Plugin V2.1.3
[CTDB TOCID: 1LstiEPxbfPI16GQJmsbeog42zc-] disk not present in database, Submit result: 1LstiEPxbfPI16GQJmsbeog42zc- has been uploaded
==== Log checksum 7F2B849BCF3394F0D8243A487BD37757BF7D9176BD718959C05EF6A18D3024FE ====
 
.cue
REM GENRE Jazz
REM DATE 1993
REM DISCID CC0EEA0F
REM COMMENT "ExactAudioCopy v1.0b3"
PERFORMER "Zusaan Kali Fasteau"
TITLE "Prophecy"
FILE "01 Prophecy.wav" WAVE
TRACK 01 AUDIO
TITLE "Prophecy"
PERFORMER "Zusaan Kali Fasteau"
INDEX 01 00:00:00
TRACK 02 AUDIO
TITLE "Nomads' Festival"
PERFORMER "Zusaan Kali Fasteau"
INDEX 00 03:52:10
FILE "02 Nomads' Festival.wav" WAVE
INDEX 01 00:00:00
TRACK 03 AUDIO
TITLE "Inner Ear"
PERFORMER "Zusaan Kali Fasteau"
INDEX 00 02:57:70
FILE "03 Inner Ear.wav" WAVE
INDEX 01 00:00:00
TRACK 04 AUDIO
TITLE "Lunar Wisdom"
PERFORMER "Zusaan Kali Fasteau"
INDEX 00 03:19:12
FILE "04 Lunar Wisdom.wav" WAVE
INDEX 01 00:00:00
TRACK 05 AUDIO
TITLE "Invocation"
PERFORMER "Zusaan Kali Fasteau"
INDEX 00 05:24:30
FILE "05 Invocation.wav" WAVE
INDEX 01 00:00:00
TRACK 06 AUDIO
TITLE "Encoding Delight"
PERFORMER "Zusaan Kali Fasteau"
INDEX 00 03:05:55
FILE "06 Encoding Delight.wav" WAVE
INDEX 01 00:00:00
TRACK 07 AUDIO
TITLE "Birdsong"
PERFORMER "Zusaan Kali Fasteau"
INDEX 00 03:54:53
FILE "07 Birdsong.wav" WAVE
INDEX 01 00:00:00
INDEX 02 04:52:68
TRACK 08 AUDIO
TITLE "The Message"
PERFORMER "Zusaan Kali Fasteau"
INDEX 00 06:37:55
FILE "08 The Message.wav" WAVE
INDEX 01 00:00:00
TRACK 09 AUDIO
TITLE "The Gyre"
PERFORMER "Zusaan Kali Fasteau"
INDEX 00 03:15:57
FILE "09 The Gyre.wav" WAVE
INDEX 01 00:00:00
TRACK 10 AUDIO
TITLE "Sonic Deep"
PERFORMER "Zusaan Kali Fasteau"
INDEX 00 05:31:45
FILE "10 Sonic Deep.wav" WAVE
INDEX 01 00:00:00
TRACK 11 AUDIO
TITLE "Monsoon"
PERFORMER "Zusaan Kali Fasteau"
INDEX 00 05:26:73
FILE "11 Monsoon.wav" WAVE
INDEX 01 00:00:00
TRACK 12 AUDIO
TITLE "Celestial Sea"
PERFORMER "Zusaan Kali Fasteau"
INDEX 00 03:27:60
FILE "12 Celestial Sea.wav" WAVE
INDEX 01 00:00:00
TRACK 13 AUDIO
TITLE "Curved Space"
PERFORMER "Zusaan Kali Fasteau"
INDEX 00 04:00:45
FILE "13 Curved Space.wav" WAVE
INDEX 01 00:00:00
TRACK 14 AUDIO
TITLE "Cosmopolis"
PERFORMER "Zusaan Kali Fasteau"
INDEX 00 05:06:17
FILE "14 Cosmopolis.wav" WAVE
INDEX 01 00:00:00
TRACK 15 AUDIO
TITLE "Benevolence"
PERFORMER "Zusaan Kali Fasteau"
INDEX 00 04:07:20
FILE "15 Benevolence.wav" WAVE
INDEX 01 00:00:00

http://www.allmusic.com/album/prophecy-mw0000697840
другие релизы
13:14
279
Нет комментариев. Ваш будет первым!