Вы используете незарегистрированную версию компонента "Вкладки"!

Поиск

(free jazz) [CD] JuJu - A Message From Mozambique (1972), FLAC (tracks+.cue), lossless

(free jazz) [CD] JuJu - A Message From Mozambique (1972), FLAC (tracks+.cue), lossless
Треклист:


JuJu - A Message From Mozambique (1972)

Жанр: free jazz
Год выпуска: 1972
Издатель (лейбл):1994, Name Brand Records / NB19735
Формат: FLAC (tracks+.cue)
Битрейт аудио: lossless
Продолжительность 44`30
Источник: what.cd, box
Bass, Electric Bass, Flute [Wood] – Ken Shabala
Congas, Drums – Babatunde*
Flute, Flute [Piccolo], Vibraphone – Lon Moshe
Piano, Shekere – Al-Hammel Rasul*
Shekere, Soprano Saxophone, Tenor Saxophone – Plunky Nkabinde
Timbales, Shekere – Jalango Ngoma
Vocals, Percussion – Juju (9)

tracks
1 Struggle (Home) 16:10
2 Soledad Brothers 5:15
3 Freedom Fighter 3:25
4 Make Yor Own Revolution Now 11:05
5 Father Is Back 2:05
6 Nairobi/Chants (Traditional) 8:00


 
.log
Exact Audio Copy V0.99 prebeta 5 from 4. May 2009
EAC extraction logfile from 14. January 2011, 10:03
JuJu / A Message From Mozambique
Used drive : SAMSUNG CDRW/DVD SM-308B Adapter: 0 ID: 0
Read mode : Secure
Utilize accurate stream : Yes
Defeat audio cache : Yes
Make use of C2 pointers : No
Read offset correction : 120
Overread into Lead-In and Lead-Out : No
Fill up missing offset samples with silence : Yes
Delete leading and trailing silent blocks : No
Null samples used in CRC calculations : Yes
Used interface : Native Win32 interface for Win NT & 2000
Gap handling : Appended to previous track
Used output format : User Defined Encoder
Selected bitrate : 192 kBit/s
Quality : High
Add ID3 tag : Yes
Command line compressor : C:\Documents and Settings\jhudak\Desktop\Joe\Exact Audio Copy\FLAC\flac.exe
Additional command line options : -V -8 -T "artist=%a" -T "title=%t" -T "album=%g" -T "date=%y" -T "tracknumber=%n" -T "genre=%m" %s
TOC of the extracted CD
Track | Start | Length | Start sector | End sector
---------------------------------------------------------
1 | 0:00.00 | 15:57.27 | 0 | 71801
2 | 15:57.27 | 5:09.13 | 71802 | 94989
3 | 21:06.40 | 3:31.32 | 94990 | 110846
4 | 24:37.72 | 11:02.63 | 110847 | 160559
5 | 35:40.60 | 2:03.49 | 160560 | 169833
6 | 37:44.34 | 6:45.23 | 169834 | 200231
Track 1
Filename C:\Documents and Settings\jhudak\Desktop\Joe\JuJu - A Message From Mozambique (1972)\JuJu - 01 - (Struggle) HOME.wav
Pre-gap length 0:00:02.00
Peak level 60.3 %
Track quality 99.9 %
Test CRC 1179CD44
Copy CRC 1179CD44
Track not present in AccurateRip database
Copy OK
Track 2
Filename C:\Documents and Settings\jhudak\Desktop\Joe\JuJu - A Message From Mozambique (1972)\JuJu - 02 - Soledad Brothers.wav
Pre-gap length 0:00:02.22
Peak level 47.1 %
Track quality 99.9 %
Test CRC AB55ED88
Copy CRC AB55ED88
Track not present in AccurateRip database
Copy OK
Track 3
Filename C:\Documents and Settings\jhudak\Desktop\Joe\JuJu - A Message From Mozambique (1972)\JuJu - 03 - Freedom Fighter.wav
Pre-gap length 0:00:03.17
Peak level 44.8 %
Track quality 99.9 %
Test CRC 6BE1FD49
Copy CRC 6BE1FD49
Track not present in AccurateRip database
Copy OK
Track 4
Filename C:\Documents and Settings\jhudak\Desktop\Joe\JuJu - A Message From Mozambique (1972)\JuJu - 04 - Make Your Own Revolution Now.wav
Pre-gap length 0:00:00.01
Peak level 74.3 %
Track quality 99.9 %
Test CRC EFA89A55
Copy CRC EFA89A55
Track not present in AccurateRip database
Copy OK
Track 5
Filename C:\Documents and Settings\jhudak\Desktop\Joe\JuJu - A Message From Mozambique (1972)\JuJu - 05 - Father Is Back.wav
Pre-gap length 0:00:02.24
Peak level 23.9 %
Track quality 99.4 %
Test CRC AF7C1A5A
Copy CRC AF7C1A5A
Track not present in AccurateRip database
Copy OK
Track 6
Filename C:\Documents and Settings\jhudak\Desktop\Joe\JuJu - A Message From Mozambique (1972)\JuJu - 06 - Nairobi,Chants (Traditional).wav
Pre-gap length 0:00:01.19
Peak level 27.3 %
Track quality 99.6 %
Test CRC B3ED9D7E
Copy CRC B3ED9D7E
Track not present in AccurateRip database
Copy OK
None of the tracks are present in the AccurateRip database
No errors occurred
End of status report
 
.cue
REM GENRE Jazz
REM DATE 1972
REM DISCID 580A6D06
REM COMMENT "ExactAudioCopy v0.99pb5"
PERFORMER "JuJu"
TITLE "A Message From Mozambique"
FILE "JuJu - 01 - (Struggle) HOME.wav" WAVE
TRACK 01 AUDIO
TITLE "(Struggle) HOME"
PERFORMER "JuJu"
INDEX 01 00:00:00
TRACK 02 AUDIO
TITLE "Soledad Brothers"
PERFORMER "JuJu"
INDEX 00 15:55:05
FILE "JuJu - 02 - Soledad Brothers.wav" WAVE
INDEX 01 00:00:00
TRACK 03 AUDIO
TITLE "Freedom Fighter"
PERFORMER "JuJu"
INDEX 00 05:05:71
FILE "JuJu - 03 - Freedom Fighter.wav" WAVE
INDEX 01 00:00:00
TRACK 04 AUDIO
TITLE "Make Your Own Revolution Now"
PERFORMER "JuJu"
INDEX 00 03:31:31
FILE "JuJu - 04 - Make Your Own Revolution Now.wav" WAVE
INDEX 01 00:00:00
TRACK 05 AUDIO
TITLE "Father Is Back"
PERFORMER "JuJu"
INDEX 00 11:00:39
FILE "JuJu - 05 - Father Is Back.wav" WAVE
INDEX 01 00:00:00
TRACK 06 AUDIO
TITLE "Nairobi/Chants (Traditional)"
PERFORMER "JuJu"
INDEX 00 02:02:30
FILE "JuJu - 06 - Nairobi,Chants (Traditional).wav" WAVE
INDEX 01 00:00:00
 
.accurip
[CUETools log; Date: 27/01/14 13:39:22; Version: 2.1.4]
[CTDB TOCID: VOEHsDDoN9gkfeub5V4ur3wjXdM-] found.
Track | CTDB Status
1 | (1/1) Accurately ripped
2 | (1/1) Accurately ripped
3 | (1/1) Accurately ripped
4 | (1/1) Accurately ripped
5 | (1/1) Accurately ripped
6 | (1/1) Accurately ripped
[AccurateRip ID: 000c5549-003e7d9f-580a6d06] found.
Track [ CRC | V2 ] Status
01 [50c8fc50|746c5a33] (0+1/1) Accurately ripped
02 [a40118fe|8b9360a7] (0+1/1) Accurately ripped
03 [bf84a7da|a232bac8] (0+1/1) Accurately ripped
04 [b1485b8f|bccb4e0a] (0+1/1) Accurately ripped
05 [cb11a829|1843f02f] (0+1/1) Accurately ripped
06 [b6a5c78f|a257ecd7] (0+1/1) Accurately ripped
Track Peak [ CRC32 ] [W/O NULL] [ LOG ]
-- 74.3 [01268055] [20C55755]
01 60.3 [1179CD44] [50A49005] CRC32
02 47.1 [AB55ED88] [A0E2D31D] CRC32
03 44.8 [6BE1FD49] [E90EC53D] CRC32
04 74.3 [EFA89A55] [7213047A] CRC32
05 23.9 [AF7C1A5A] [34A7D4B1] CRC32
06 27.3 [B3ED9D7E] [3206AFF5] CRC32

другие релизы
Any questions -> support@pro-jazz.com. По всем вопросам пишите -> support@pro-jazz.com
22:58
185
Нет комментариев. Ваш будет первым!