Вы используете незарегистрированную версию компонента "Вкладки"!

Поиск

(free jazz, avant-garde) [CD] Arthur Doyle - The Basement Tapes (2003), FLAC (tracks+.cue), lossless

(free jazz, avant-garde) [CD] Arthur Doyle - The Basement Tapes (2003), FLAC (tracks+.cue), lossless
Треклист:


Arthur Doyle - The Basement Tapes (2003)

Жанр: free jazz, avant-garde
Год выпуска: 2003
Издатель (лейбл):Durtro 063CD
Формат: FLAC (tracks+.cue)
Битрейт аудио: lossless
Продолжительность 40`56
Источник: what.cd,
Drums – Edward Perraud
Edited By, Mastered By [Pre-mastering] – Eric La Casa
Layout – Othila (2)
Tenor Saxophone, Flute, Recorder, Voice – Arthur Doyle
Violin – Dan Warburton

tracks
1 Noah Black Ark 10:52
2 Birthday Song For Edward 4:47
3 Milford Graves 7:20
4 A Prayer For Peace 5:22
5 Homo 6:09
6 Street Player 6:36


 
.log
Exact Audio Copy V1.0 beta 3 from 29. August 2011
EAC extraction logfile from 12. December 2012, 20:10
Arthur Doyle / The Basement Tapes
Used drive : HP DVD Writer 1260r Adapter: 3 ID: 0
Read mode : Secure
Utilize accurate stream : Yes
Defeat audio cache : Yes
Make use of C2 pointers : No
Read offset correction : 48
Overread into Lead-In and Lead-Out : No
Fill up missing offset samples with silence : Yes
Delete leading and trailing silent blocks : No
Null samples used in CRC calculations : Yes
Used interface : Native Win32 interface for Win NT & 2000
Gap handling : Appended to previous track
Used output format : User Defined Encoder
Selected bitrate : 1024 kBit/s
Quality : High
Add ID3 tag : No
Command line compressor : C:\Program Files (x86)\Exact Audio Copy\Flac\flac.exe
Additional command line options : -8 -V -T "ARTIST=%artist%" -T "TITLE=%title%" -T "ALBUM=%albumtitle%" -T "DATE=%year%" -T "TRACKNUMBER=%tracknr%" -T "GENRE=%genre%" -T "PERFORMER=%albuminterpret%" -T "COMPOSER=%composer%" %haslyrics%--tag-from-file=LYRICS="%lyricsfile%"%haslyrics% -T "ALBUMARTIST=%albumartist%" -T "DISCNUMBER=%cdnumber%" -T "TOTALDISCS=%totalcds%" -T "TOTALTRACKS=%numtracks%" -T "COMMENT=%comment%" %source% -o %dest%
TOC of the extracted CD
Track | Start | Length | Start sector | End sector
---------------------------------------------------------
1 | 0:00.00 | 10:50.48 | 0 | 48797
2 | 10:50.48 | 4:45.19 | 48798 | 70191
3 | 15:35.67 | 7:18.60 | 70192 | 103101
4 | 22:54.52 | 5:19.28 | 103102 | 127054
5 | 28:14.05 | 6:07.11 | 127055 | 154590
6 | 34:21.16 | 6:35.05 | 154591 | 184220
Track 1
Filename D:\C - MY RIPS\Arthur Doyle - The Basement Tapes (2003) [FLAC]\01 - Noah Black Ark.wav
Pre-gap length 0:00:02.00
Peak level 97.7 %
Extraction speed 2.7 X
Track quality 100.0 %
Test CRC A7161A60
Copy CRC A7161A60
Accurately ripped (confidence 1) [647F5CDC] (AR v1)
Copy OK
Track 2
Filename D:\C - MY RIPS\Arthur Doyle - The Basement Tapes (2003) [FLAC]\02 - Birthday Song for Edward.wav
Pre-gap length 0:00:02.00
Peak level 97.7 %
Extraction speed 3.1 X
Track quality 100.0 %
Test CRC 0A42B61C
Copy CRC 0A42B61C
Accurately ripped (confidence 1) [32818398] (AR v1)
Copy OK
Track 3
Filename D:\C - MY RIPS\Arthur Doyle - The Basement Tapes (2003) [FLAC]\03 - Milford Graves.wav
Pre-gap length 0:00:02.00
Peak level 97.7 %
Extraction speed 3.5 X
Track quality 100.0 %
Test CRC 3BA5299A
Copy CRC 3BA5299A
Accurately ripped (confidence 1) [55BD2D02] (AR v1)
Copy OK
Track 4
Filename D:\C - MY RIPS\Arthur Doyle - The Basement Tapes (2003) [FLAC]\04 - A Prayer for Peace.wav
Pre-gap length 0:00:02.00
Peak level 97.7 %
Extraction speed 3.4 X
Track quality 99.9 %
Test CRC E5BC2ACD
Copy CRC E5BC2ACD
Accurately ripped (confidence 1) [714ADA63] (AR v1)
Copy OK
Track 5
Filename D:\C - MY RIPS\Arthur Doyle - The Basement Tapes (2003) [FLAC]\05 - Homo.wav
Pre-gap length 0:00:02.00
Peak level 97.7 %
Extraction speed 3.7 X
Track quality 99.9 %
Test CRC 2E96858A
Copy CRC 2E96858A
Accurately ripped (confidence 1) [3E5E190F] (AR v1)
Copy OK
Track 6
Filename D:\C - MY RIPS\Arthur Doyle - The Basement Tapes (2003) [FLAC]\06 - Street Player.wav
Pre-gap length 0:00:02.00
Peak level 97.7 %
Extraction speed 4.0 X
Track quality 99.9 %
Test CRC 6489CB9A
Copy CRC 6489CB9A
Accurately ripped (confidence 1) [58156063] (AR v1)
Copy OK
All tracks accurately ripped
No errors occurred
End of status report
---- CUETools DB Plugin V2.1.3
[CTDB TOCID: te7vynQpj43H7l_31.yYLrexF9w-] disk not present in database, Submit result: te7vynQpj43H7l_31.yYLrexF9w- has been uploaded
==== Log checksum 400C59A6EE6682B0537674C3F40366F0A53D7DD9425505CBDBC980367E7CA3A0 ====
 
.cue
REM GENRE Jazz
REM DATE 2003
REM DISCID 54099806
REM COMMENT "ExactAudioCopy v1.0b3"
PERFORMER "Arthur Doyle"
TITLE "The Basement Tapes"
FILE "01 - Noah Black Ark.wav" WAVE
TRACK 01 AUDIO
TITLE "Noah Black Ark"
PERFORMER "Arthur Doyle"
FLAGS DCP
INDEX 01 00:00:00
TRACK 02 AUDIO
TITLE "Birthday Song for Edward"
PERFORMER "Arthur Doyle"
FLAGS DCP
INDEX 00 10:48:48
FILE "02 - Birthday Song for Edward.wav" WAVE
INDEX 01 00:00:00
TRACK 03 AUDIO
TITLE "Milford Graves"
PERFORMER "Arthur Doyle"
FLAGS DCP
INDEX 00 04:43:19
FILE "03 - Milford Graves.wav" WAVE
INDEX 01 00:00:00
TRACK 04 AUDIO
TITLE "A Prayer for Peace"
PERFORMER "Arthur Doyle"
FLAGS DCP
INDEX 00 07:16:60
FILE "04 - A Prayer for Peace.wav" WAVE
INDEX 01 00:00:00
TRACK 05 AUDIO
TITLE "Homo"
PERFORMER "Arthur Doyle"
FLAGS DCP
INDEX 00 05:17:28
FILE "05 - Homo.wav" WAVE
INDEX 01 00:00:00
TRACK 06 AUDIO
TITLE "Street Player"
PERFORMER "Arthur Doyle"
FLAGS DCP
INDEX 00 06:05:11
FILE "06 - Street Player.wav" WAVE
INDEX 01 00:00:00

другие релизы
По всем вопросам пишите личное сообщение пользователю M0p94ok.
22:57
139
Нет комментариев. Ваш будет первым!