Вы используете незарегистрированную версию компонента "Вкладки"!

Поиск

(free jazz, avant-garde) [CD] Ellery Eskelin, Susan Alcorn, Michael Formanek - Mirage 2013, FLAC (tracks+.cue), lossless

(free jazz, avant-garde) [CD] Ellery Eskelin, Susan Alcorn, Michael Formanek - Mirage 2013, FLAC (tracks+.cue), lossless
Треклист:


Ellery Eskelin, Susan Alcorn, Michael Formanek - Mirage 2013

Жанр: free jazz, avant-garde
Год выпуска: 2013
Издатель (лейбл):Clean Feed / CF271
Формат: FLAC (tracks+.cue)
Битрейт аудио: lossless
Продолжительность 1`06`51
Источник: what.cd, 6060842
Ellerry Eskelin (ts), Michael Formanek (b), Susan Alcorn (g)

tracks
1. Rain Shadow 5:50
2. Meridian 6:22
3. Divergence 4:28
4. Saturation 4:49
5. Absolute Zero 3:43
6. Refraction 3:28
7. Occlusion 5:17
8. Downburst 27:21
9. Mirage 5:33


 
.log
X Lossless Decoder version 20130602 (143.2)
XLD extraction logfile from 2013-07-12 14:37:39 +0400
Ellery Eskelin, Susan Alcorn, Michael Formanek / Mirage
Used drive : HL-DT-ST DVDRW GX30N (revision RP09)
Media type : Pressed CD
Ripper mode : XLD Secure Ripper
Disable audio cache : OK for the drive with a cache less than 1375KiB
Make use of C2 pointers : NO
Read offset correction : 6
Max retry count : 100
Gap status : Analyzed, Appended (except HTOA)
TOC of the extracted CD
Track | Start | Length | Start sector | End sector
---------------------------------------------------------
1 | 00:00:00 | 05:49:53 | 0 | 26227
2 | 05:49:53 | 06:22:02 | 26228 | 54879
3 | 12:11:55 | 04:28:16 | 54880 | 74995
4 | 16:39:71 | 04:49:12 | 74996 | 96682
5 | 21:29:08 | 03:42:56 | 96683 | 113388
6 | 25:11:64 | 03:28:03 | 113389 | 128991
7 | 28:39:67 | 05:17:22 | 128992 | 152788
8 | 33:57:14 | 27:20:52 | 152789 | 275840
9 | 61:17:66 | 05:32:54 | 275841 | 300794
AccurateRip Summary
Disc not found in AccurateRip DB.
All Tracks
Album gain : -4.66 dB
Peak : 0.999939
Statistics
Read error : 0
Jitter error (maybe fixed) : 0
Retry sector count : 0
Damaged sector count : 0
Track 01
Filename : /Users/anch/Music/FLAC/Ellery Eskelin, Susan Alcorn, Michael Formanek - 2013 - Mirage [MP3 320]/01 - Rain Shadow.mp3
/Users/anch/Music/FLAC/Ellery Eskelin, Susan Alcorn, Michael Formanek - 2013 - Mirage [MP3 V0]/01 - Rain Shadow.mp3
/Users/anch/Music/FLAC/Ellery Eskelin, Susan Alcorn, Michael Formanek - 2013 - Mirage [FLAC]/01 - Rain Shadow.flac
Pre-gap length : 00:02:00
Track gain : -4.76 dB
Peak : 0.999908
CRC32 hash (test run) : 268BE710
CRC32 hash : 268BE710
CRC32 hash (skip zero) : 653EEDC6
AccurateRip v1 signature : 86A813E6
AccurateRip v2 signature : 4B899765
->Track not present in AccurateRip database.
Statistics
Read error : 0
Jitter error (maybe fixed) : 0
Retry sector count : 0
Damaged sector count : 0
Track 02
Filename : /Users/anch/Music/FLAC/Ellery Eskelin, Susan Alcorn, Michael Formanek - 2013 - Mirage [MP3 320]/02 - Meridian.mp3
/Users/anch/Music/FLAC/Ellery Eskelin, Susan Alcorn, Michael Formanek - 2013 - Mirage [MP3 V0]/02 - Meridian.mp3
/Users/anch/Music/FLAC/Ellery Eskelin, Susan Alcorn, Michael Formanek - 2013 - Mirage [FLAC]/02 - Meridian.flac
Track gain : -4.08 dB
Peak : 0.999878
CRC32 hash (test run) : 553352A4
CRC32 hash : 553352A4
CRC32 hash (skip zero) : 31B43CFE
AccurateRip v1 signature : 47DA2CFC
AccurateRip v2 signature : 10EDD798
->Track not present in AccurateRip database.
Statistics
Read error : 0
Jitter error (maybe fixed) : 0
Retry sector count : 0
Damaged sector count : 0
Track 03
Filename : /Users/anch/Music/FLAC/Ellery Eskelin, Susan Alcorn, Michael Formanek - 2013 - Mirage [MP3 320]/03 - Divergence.mp3
/Users/anch/Music/FLAC/Ellery Eskelin, Susan Alcorn, Michael Formanek - 2013 - Mirage [MP3 V0]/03 - Divergence.mp3
/Users/anch/Music/FLAC/Ellery Eskelin, Susan Alcorn, Michael Formanek - 2013 - Mirage [FLAC]/03 - Divergence.flac
Track gain : -5.22 dB
Peak : 0.999939
CRC32 hash (test run) : 3291E2DF
CRC32 hash : 3291E2DF
CRC32 hash (skip zero) : 98D0D05D
AccurateRip v1 signature : 0ADBFA5A
AccurateRip v2 signature : 3822177B
->Track not present in AccurateRip database.
Statistics
Read error : 0
Jitter error (maybe fixed) : 0
Retry sector count : 0
Damaged sector count : 0
Track 04
Filename : /Users/anch/Music/FLAC/Ellery Eskelin, Susan Alcorn, Michael Formanek - 2013 - Mirage [MP3 320]/04 - Saturation.mp3
/Users/anch/Music/FLAC/Ellery Eskelin, Susan Alcorn, Michael Formanek - 2013 - Mirage [MP3 V0]/04 - Saturation.mp3
/Users/anch/Music/FLAC/Ellery Eskelin, Susan Alcorn, Michael Formanek - 2013 - Mirage [FLAC]/04 - Saturation.flac
Track gain : -4.60 dB
Peak : 0.999939
CRC32 hash (test run) : D2FCDB64
CRC32 hash : D2FCDB64
CRC32 hash (skip zero) : 4D166299
AccurateRip v1 signature : 7F7C4C29
AccurateRip v2 signature : B8766A14
->Track not present in AccurateRip database.
Statistics
Read error : 0
Jitter error (maybe fixed) : 0
Retry sector count : 0
Damaged sector count : 0
Track 05
Filename : /Users/anch/Music/FLAC/Ellery Eskelin, Susan Alcorn, Michael Formanek - 2013 - Mirage [MP3 320]/05 - Absolute Zero.mp3
/Users/anch/Music/FLAC/Ellery Eskelin, Susan Alcorn, Michael Formanek - 2013 - Mirage [MP3 V0]/05 - Absolute Zero.mp3
/Users/anch/Music/FLAC/Ellery Eskelin, Susan Alcorn, Michael Formanek - 2013 - Mirage [FLAC]/05 - Absolute Zero.flac
Track gain : -4.89 dB
Peak : 0.999939
CRC32 hash (test run) : 2EF3B274
CRC32 hash : 2EF3B274
CRC32 hash (skip zero) : 26A73C15
AccurateRip v1 signature : 3C9BD728
AccurateRip v2 signature : DF9811B4
->Track not present in AccurateRip database.
Statistics
Read error : 0
Jitter error (maybe fixed) : 0
Retry sector count : 0
Damaged sector count : 0
Track 06
Filename : /Users/anch/Music/FLAC/Ellery Eskelin, Susan Alcorn, Michael Formanek - 2013 - Mirage [MP3 320]/06 - Refraction.mp3
/Users/anch/Music/FLAC/Ellery Eskelin, Susan Alcorn, Michael Formanek - 2013 - Mirage [MP3 V0]/06 - Refraction.mp3
/Users/anch/Music/FLAC/Ellery Eskelin, Susan Alcorn, Michael Formanek - 2013 - Mirage [FLAC]/06 - Refraction.flac
Track gain : -5.93 dB
Peak : 0.999847
CRC32 hash (test run) : 1ADA121B
CRC32 hash : 1ADA121B
CRC32 hash (skip zero) : 6B1B1631
AccurateRip v1 signature : 2E59DBE7
AccurateRip v2 signature : F5BB615D
->Track not present in AccurateRip database.
Statistics
Read error : 0
Jitter error (maybe fixed) : 0
Retry sector count : 0
Damaged sector count : 0
Track 07
Filename : /Users/anch/Music/FLAC/Ellery Eskelin, Susan Alcorn, Michael Formanek - 2013 - Mirage [MP3 320]/07 - Occlusion.mp3
/Users/anch/Music/FLAC/Ellery Eskelin, Susan Alcorn, Michael Formanek - 2013 - Mirage [MP3 V0]/07 - Occlusion.mp3
/Users/anch/Music/FLAC/Ellery Eskelin, Susan Alcorn, Michael Formanek - 2013 - Mirage [FLAC]/07 - Occlusion.flac
Track gain : -4.05 dB
Peak : 0.999725
CRC32 hash (test run) : 710CE226
CRC32 hash : 710CE226
CRC32 hash (skip zero) : E6D75B30
AccurateRip v1 signature : B3588F7F
AccurateRip v2 signature : 79221C74
->Track not present in AccurateRip database.
Statistics
Read error : 0
Jitter error (maybe fixed) : 0
Retry sector count : 0
Damaged sector count : 0
Track 08
Filename : /Users/anch/Music/FLAC/Ellery Eskelin, Susan Alcorn, Michael Formanek - 2013 - Mirage [MP3 320]/08 - Downburst.mp3
/Users/anch/Music/FLAC/Ellery Eskelin, Susan Alcorn, Michael Formanek - 2013 - Mirage [MP3 V0]/08 - Downburst.mp3
/Users/anch/Music/FLAC/Ellery Eskelin, Susan Alcorn, Michael Formanek - 2013 - Mirage [FLAC]/08 - Downburst.flac
Track gain : -4.81 dB
Peak : 0.999939
CRC32 hash (test run) : CE2E507D
CRC32 hash : CE2E507D
CRC32 hash (skip zero) : EE3DFF8C
AccurateRip v1 signature : F340EA69
AccurateRip v2 signature : E20A1BD3
->Track not present in AccurateRip database.
Statistics
Read error : 0
Jitter error (maybe fixed) : 0
Retry sector count : 0
Damaged sector count : 0
Track 09
Filename : /Users/anch/Music/FLAC/Ellery Eskelin, Susan Alcorn, Michael Formanek - 2013 - Mirage [MP3 320]/09 - Mirage.mp3
/Users/anch/Music/FLAC/Ellery Eskelin, Susan Alcorn, Michael Formanek - 2013 - Mirage [MP3 V0]/09 - Mirage.mp3
/Users/anch/Music/FLAC/Ellery Eskelin, Susan Alcorn, Michael Formanek - 2013 - Mirage [FLAC]/09 - Mirage.flac
Track gain : 2.15 dB
Peak : 0.932220
CRC32 hash (test run) : B86CF900
CRC32 hash : B86CF900
CRC32 hash (skip zero) : 38A1D5CE
AccurateRip v1 signature : 47F7737F
AccurateRip v2 signature : 99B5807F
->Track not present in AccurateRip database.
Statistics
Read error : 0
Jitter error (maybe fixed) : 0
Retry sector count : 0
Damaged sector count : 0
No errors occurred
End of status report
 
.cue
TITLE "Mirage"
PERFORMER "Ellery Eskelin, Susan Alcorn, Michael Formanek"
REM GENRE "Free Jazz"
REM DATE "2013"
REM DISCNUMBER 1
REM TOTALDISCS 1
REM DISCID 630FAA09
REM REPLAYGAIN_ALBUM_GAIN -4.66 dB
REM REPLAYGAIN_ALBUM_PEAK 0.999939
FILE "01 - Rain Shadow.flac" WAVE
TRACK 01 AUDIO
TITLE "Rain Shadow"
PERFORMER "Ellery Eskelin, Susan Alcorn, Michael Formanek"
FLAGS DCP
REM REPLAYGAIN_TRACK_GAIN -4.76 dB
REM REPLAYGAIN_TRACK_PEAK 0.999908
INDEX 01 00:00:00
FILE "02 - Meridian.flac" WAVE
TRACK 02 AUDIO
TITLE "Meridian"
PERFORMER "Ellery Eskelin, Susan Alcorn, Michael Formanek"
FLAGS DCP
REM REPLAYGAIN_TRACK_GAIN -4.08 dB
REM REPLAYGAIN_TRACK_PEAK 0.999878
INDEX 01 00:00:00
FILE "03 - Divergence.flac" WAVE
TRACK 03 AUDIO
TITLE "Divergence"
PERFORMER "Ellery Eskelin, Susan Alcorn, Michael Formanek"
FLAGS DCP
REM REPLAYGAIN_TRACK_GAIN -5.22 dB
REM REPLAYGAIN_TRACK_PEAK 0.999939
INDEX 01 00:00:00
FILE "04 - Saturation.flac" WAVE
TRACK 04 AUDIO
TITLE "Saturation"
PERFORMER "Ellery Eskelin, Susan Alcorn, Michael Formanek"
FLAGS DCP
REM REPLAYGAIN_TRACK_GAIN -4.60 dB
REM REPLAYGAIN_TRACK_PEAK 0.999939
INDEX 01 00:00:00
FILE "05 - Absolute Zero.flac" WAVE
TRACK 05 AUDIO
TITLE "Absolute Zero"
PERFORMER "Ellery Eskelin, Susan Alcorn, Michael Formanek"
FLAGS DCP
REM REPLAYGAIN_TRACK_GAIN -4.89 dB
REM REPLAYGAIN_TRACK_PEAK 0.999939
INDEX 01 00:00:00
FILE "06 - Refraction.flac" WAVE
TRACK 06 AUDIO
TITLE "Refraction"
PERFORMER "Ellery Eskelin, Susan Alcorn, Michael Formanek"
FLAGS DCP
REM REPLAYGAIN_TRACK_GAIN -5.93 dB
REM REPLAYGAIN_TRACK_PEAK 0.999847
INDEX 01 00:00:00
FILE "07 - Occlusion.flac" WAVE
TRACK 07 AUDIO
TITLE "Occlusion"
PERFORMER "Ellery Eskelin, Susan Alcorn, Michael Formanek"
FLAGS DCP
REM REPLAYGAIN_TRACK_GAIN -4.05 dB
REM REPLAYGAIN_TRACK_PEAK 0.999725
INDEX 01 00:00:00
FILE "08 - Downburst.flac" WAVE
TRACK 08 AUDIO
TITLE "Downburst"
PERFORMER "Ellery Eskelin, Susan Alcorn, Michael Formanek"
FLAGS DCP
REM REPLAYGAIN_TRACK_GAIN -4.81 dB
REM REPLAYGAIN_TRACK_PEAK 0.999939
INDEX 01 00:00:00
FILE "09 - Mirage.flac" WAVE
TRACK 09 AUDIO
TITLE "Mirage"
PERFORMER "Ellery Eskelin, Susan Alcorn, Michael Formanek"
FLAGS DCP
REM REPLAYGAIN_TRACK_GAIN 2.15 dB
REM REPLAYGAIN_TRACK_PEAK 0.932220
INDEX 01 00:00:00
 
.accurip
[CUETools log; Date: 27/01/14 00:33:48; Version: 2.1.4]
[CTDB TOCID: vWxUM.EfAs1qthCW3d9zDVW5hcI-] found.
Track | CTDB Status
1 | (1/1) Accurately ripped
2 | (1/1) Accurately ripped
3 | (1/1) Accurately ripped
4 | (1/1) Accurately ripped
5 | (1/1) Accurately ripped
6 | (1/1) Accurately ripped
7 | (1/1) Accurately ripped
8 | (1/1) Accurately ripped
9 | (1/1) Accurately ripped
[AccurateRip ID: 0012af91-008ddadd-630faa09] disk not present in database.
Track Peak [ CRC32 ] [W/O NULL]
-- 99.9 [ABF0148A] [2B2982B4]
01 99.9 [268BE710] [653EEDC6]
02 99.9 [553352A4] [31B43CFE]
03 99.9 [3291E2DF] [98D0D05D]
04 99.9 [D2FCDB64] [4D166299]
05 99.9 [2EF3B274] [26A73C15]
06 99.9 [1ADA121B] [6B1B1631]
07 99.9 [710CE226] [E6D75B30]
08 99.9 [CE2E507D] [EE3DFF8C]
09 93.2 [B86CF900] [38A1D5CE]

другие релизы
Any questions -> support@pro-jazz.com. По всем вопросам пишите -> support@pro-jazz.com
22:56
127
Нет комментариев. Ваш будет первым!