Вы используете незарегистрированную версию компонента "Вкладки"!

Поиск

(free jazz) [CD] Andrzej Przybielski, Marcin Oles, Bartłomiej Oles ‎- Abstract 2005, FLAC (tracks+.cue), lossless

(free jazz) [CD] Andrzej Przybielski, Marcin Oles, Bartłomiej Oles ‎- Abstract 2005, FLAC (tracks+.cue), lossless
Треклист:


Andrzej Przybielski , Marcin Oleś , Bartłomiej Oleś ‎
Abstract 2005
Жанр: free jazz
Год выпуска: 2005
Издатель (лейбл):NotTwo / MW 761-2
Формат: FLAC (tracks+.cue)
Битрейт аудио: lossless
Продолжительность 43`28
Источник: what.cd, weareborg
Bass – Marcin Oleś
Drums, Percussion [Bells], Gong – Bartłomiej Brat Oleś*
Trumpet, Flugelhorn, Trumpet [Pocket] – Andrzej Przybielski

tracks
1 Openscat 4:44
2 Ride 3:59
3 Afroblue 4:25
4 Skok 2:39
5 Ballada 7:43
6 Epitafium Dla Jacka 6:31
7 Cherry 5:00
8 Afroblue II 4:14
9 Final 4:10


 
.log
EAC extraction logfile from 30. January 2007, 22:43 for CD
Andrzej Przybielski Feat. Marcin Oles & Bartlomiej Brat Oles / Abstract
Used drive : LITE-ON LTR-52327S Adapter: 2 ID: 0
Read mode : Secure with NO C2, accurate stream, disable cache
Read offset correction : 6
Overread into Lead-In and Lead-Out : No
Used output format : Internal WAV Routines
44.100 Hz; 16 Bit; Stereo
Other options :
Fill up missing offset samples with silence : Yes
Delete leading and trailing silent blocks : No
Native Win32 interface for Win NT & 2000
Track 1
Filename E:\Andrzej Przybielski Feat. Marcin Oles & Bartlomiej Brat Oles (2005) - Abstract [FLAC]\01 - Openscat.wav
Pre-gap length 0:00:02.00
Peak level 61.4 %
Track quality 100.0 %
Test CRC 02DE6E16
Copy CRC 02DE6E16
Copy OK
Track 2
Filename E:\Andrzej Przybielski Feat. Marcin Oles & Bartlomiej Brat Oles (2005) - Abstract [FLAC]\02 - Ride.wav
Peak level 91.7 %
Track quality 100.0 %
Test CRC 73495C13
Copy CRC 73495C13
Copy OK
Track 3
Filename E:\Andrzej Przybielski Feat. Marcin Oles & Bartlomiej Brat Oles (2005) - Abstract [FLAC]\03 - Afroblue.wav
Peak level 93.4 %
Track quality 100.0 %
Test CRC 4FF3D54D
Copy CRC 4FF3D54D
Copy OK
Track 4
Filename E:\Andrzej Przybielski Feat. Marcin Oles & Bartlomiej Brat Oles (2005) - Abstract [FLAC]\04 - Skok.wav
Peak level 87.2 %
Track quality 100.0 %
Test CRC 184FA785
Copy CRC 184FA785
Copy OK
Track 5
Filename E:\Andrzej Przybielski Feat. Marcin Oles & Bartlomiej Brat Oles (2005) - Abstract [FLAC]\05 - Ballada.wav
Peak level 97.7 %
Track quality 100.0 %
Test CRC 72E6F073
Copy CRC 72E6F073
Copy OK
Track 6
Filename E:\Andrzej Przybielski Feat. Marcin Oles & Bartlomiej Brat Oles (2005) - Abstract [FLAC]\06 - Epitafium for Jacek.wav
Peak level 88.8 %
Track quality 100.0 %
Test CRC D66B1FBB
Copy CRC D66B1FBB
Copy OK
Track 7
Filename E:\Andrzej Przybielski Feat. Marcin Oles & Bartlomiej Brat Oles (2005) - Abstract [FLAC]\07 - Cherry.wav
Peak level 88.4 %
Track quality 100.0 %
Test CRC BA385137
Copy CRC BA385137
Copy OK
Track 8
Filename E:\Andrzej Przybielski Feat. Marcin Oles & Bartlomiej Brat Oles (2005) - Abstract [FLAC]\08 - Afroblue II.wav
Peak level 93.1 %
Track quality 100.0 %
Test CRC 511D39E5
Copy CRC 511D39E5
Copy OK
Track 9
Filename E:\Andrzej Przybielski Feat. Marcin Oles & Bartlomiej Brat Oles (2005) - Abstract [FLAC]\09 - Final.wav
Peak level 91.1 %
Track quality 100.0 %
Test CRC B38A0B92
Copy CRC B38A0B92
Copy OK
No errors occured
End of status report
 
.cue
REM GENRE Jazz
REM DATE 2005
REM DISCID 740A3009
REM COMMENT "ExactAudioCopy v0.95b3"
PERFORMER "Andrzej Przybielski Feat. Marcin Oles & Bartlomiej Brat Oles "
TITLE "Abstract "
FILE "01 - Openscat.wav" WAVE
TRACK 01 AUDIO
TITLE "Openscat"
PERFORMER "Andrzej Przybielski Feat. Marcin Oles & Bartlomiej Brat Oles "
FLAGS DCP
INDEX 01 00:00:00
FILE "02 - Ride.wav" WAVE
TRACK 02 AUDIO
TITLE "Ride"
PERFORMER "Andrzej Przybielski Feat. Marcin Oles & Bartlomiej Brat Oles "
FLAGS DCP
INDEX 01 00:00:00
FILE "03 - Afroblue.wav" WAVE
TRACK 03 AUDIO
TITLE "Afroblue"
PERFORMER "Andrzej Przybielski Feat. Marcin Oles & Bartlomiej Brat Oles "
FLAGS DCP
INDEX 01 00:00:00
FILE "04 - Skok.wav" WAVE
TRACK 04 AUDIO
TITLE "Skok"
PERFORMER "Andrzej Przybielski Feat. Marcin Oles & Bartlomiej Brat Oles "
FLAGS DCP
INDEX 01 00:00:00
FILE "05 - Ballada.wav" WAVE
TRACK 05 AUDIO
TITLE "Ballada"
PERFORMER "Andrzej Przybielski Feat. Marcin Oles & Bartlomiej Brat Oles "
FLAGS DCP
INDEX 01 00:00:00
FILE "06 - Epitafium for Jacek.wav" WAVE
TRACK 06 AUDIO
TITLE "Epitafium for Jacek"
PERFORMER "Andrzej Przybielski Feat. Marcin Oles & Bartlomiej Brat Oles "
FLAGS DCP
INDEX 01 00:00:00
FILE "07 - Cherry.wav" WAVE
TRACK 07 AUDIO
TITLE "Cherry"
PERFORMER "Andrzej Przybielski Feat. Marcin Oles & Bartlomiej Brat Oles "
FLAGS DCP
INDEX 01 00:00:00
FILE "08 - Afroblue II.wav" WAVE
TRACK 08 AUDIO
TITLE "Afroblue II"
PERFORMER "Andrzej Przybielski Feat. Marcin Oles & Bartlomiej Brat Oles "
FLAGS DCP
INDEX 01 00:00:00
FILE "09 - Final.wav" WAVE
TRACK 09 AUDIO
TITLE "Final"
PERFORMER "Andrzej Przybielski Feat. Marcin Oles & Bartlomiej Brat Oles "
FLAGS DCP
INDEX 01 00:00:00
 
.accurip
[CUETools log; Date: 27/01/14 16:29:52; Version: 2.1.4]
[CTDB TOCID: KabW7U4A7QOtEbr1on6UJgcWbCY-] disk not present in database.
[AccurateRip ID: 000eadf4-006d009e-740a3009] found.
Track [ CRC | V2 ] Status
01 [f59779bf|b4a14f26] (1+0/1) Accurately ripped
02 [f04ed6f7|3306e510] (1+0/1) Accurately ripped
03 [53a42336|34ad176c] (1+0/1) Accurately ripped
04 [55d68c04|d1087004] (1+0/1) Accurately ripped
05 [7b01f33f|38e28bb5] (1+0/1) Accurately ripped
06 [cb14767b|5eaa8ee2] (1+0/1) Accurately ripped
07 [368f178e|2300736c] (1+0/1) Accurately ripped
08 [e8952fd6|cf938d22] (1+0/1) Accurately ripped
09 [4e6784cc|b6ef6630] (1+0/1) Accurately ripped
Track Peak [ CRC32 ] [W/O NULL] [ LOG ]
-- 97.7 [EE945360] [4873D460]
01 61.4 [02DE6E16] [B0B99C53] CRC32
02 91.7 [73495C13] [C2B3B4B4] CRC32
03 93.4 [4FF3D54D] [C3A8400B] CRC32
04 87.2 [184FA785] [50B1D1DA] CRC32
05 97.7 [72E6F073] [C35CBD9F] CRC32
06 88.8 [D66B1FBB] [16FE2095] CRC32
07 88.4 [BA385137] [E810FCF6] CRC32
08 93.1 [511D39E5] [9BF53C87] CRC32
09 91.1 [B38A0B92] [A8140604] CRC32

другие релизы
По всем вопросам пишите личное сообщение пользователю M0p94ok.
22:58
132
Нет комментариев. Ваш будет первым!