Вы используете незарегистрированную версию компонента "Вкладки"!

Поиск

(free jazz, soul jazz) [CD] Eddie Gale - Eddie Gale's Ghetto Music 1968, FLAC (tracks+.cue), lossless

(free jazz, soul jazz) [CD] Eddie Gale - Eddie Gale's Ghetto Music 1968, FLAC (tracks+.cue), lossless
Треклист:


Eddie Gale - Eddie Gale's Ghetto Music 1968

Жанр: free jazz, soul jazz
Год выпуска: 1968
Издатель (лейбл):2003, water / water117
Формат: FLAC (tracks+.cue)
Битрейт аудио: lossless
Продолжительность 40`52
Источник: what.cd, Bujumbura
Bass – James "Tokio" Reid*, Judah Samuel
Drums – Richard Hackett, Thomas Holman
Lead Vocals – Elaine Beener
Tenor Saxophone, Flute – Russell Lyle
Trumpet, Recorder [Soprano], Kalimba [Jamaican Thumb Piano], Steel Drums, Whistle [Bird], Composed By, Arranged By, Conductor – Eddie Gale
Vocals – Art Jenkins, Barbara Dove, Edward Walrond, Evelyn Goodwin, Fulumi Prince, Mildred Weston, Norman Right, Sondra Walston, Sylvia Bibbs

tracks
1 The Rain 6:23
2 Fulton Street 6:47
3 A Understanding 7:50
4 A Walk With Thee 6:06
5 The Coming Of Gwilu 13:37


 
.log
EAC extraction logfile from 3. May 2008, 19:24 for CD
Eddie Gale / Eddie Gale's Ghetto Music
Used drive : TDK CDRW5200B Adapter: 1 ID: 1
Read mode : Secure with NO C2, accurate stream, disable cache
Read offset correction : 6
Overread into Lead-In and Lead-Out : No
Used output format : Internal WAV Routines
44.100 Hz; 16 Bit; Stereo
Other options :
Fill up missing offset samples with silence : Yes
Delete leading and trailing silent blocks : No
Native Win32 interface for Win NT & 2000
Track 1
Filename C:\01 - The Rain.wav
Pre-gap length 0:00:02.00
Peak level 96.6 %
Track quality 99.9 %
Test CRC 8D70FE07
Copy CRC 8D70FE07
Copy OK
Track 2
Filename C:\02 - Fulton Street.wav
Peak level 96.6 %
Track quality 100.0 %
Test CRC 14A152CC
Copy CRC 14A152CC
Copy OK
Track 3
Filename C:\03 - A Understanding.wav
Peak level 96.2 %
Track quality 100.0 %
Test CRC 747F53F3
Copy CRC 747F53F3
Copy OK
Track 4
Filename C:\04 - A Walk with Thee.wav
Peak level 96.6 %
Track quality 100.0 %
Test CRC EAB05D9F
Copy CRC EAB05D9F
Copy OK
Track 5
Filename C:\05 - The Coming of Gwilu.wav
Peak level 96.6 %
Track quality 100.0 %
Test CRC 436C2C70
Copy CRC 436C2C70
Copy OK
No errors occured
End of status report
------------------------------------------------------------
EAC extraction logfile from 3. May 2008, 19:24 for CD
Eddie Gale / Eddie Gale's Ghetto Music
Used drive : TDK CDRW5200B Adapter: 1 ID: 1
Read mode : Secure with NO C2, accurate stream, disable cache
Read offset correction : 6
Overread into Lead-In and Lead-Out : No
Used output format : Internal WAV Routines
44.100 Hz; 16 Bit; Stereo
Other options :
Fill up missing offset samples with silence : Yes
Delete leading and trailing silent blocks : No
Native Win32 interface for Win NT & 2000
Track 1
Filename C:\01 - The Rain.wav
Pre-gap length 0:00:02.00
Peak level 96.6 %
Track quality 99.9 %
Test CRC 8D70FE07
Copy CRC 8D70FE07
Copy OK
Track 2
Filename C:\02 - Fulton Street.wav
Peak level 96.6 %
Track quality 100.0 %
Test CRC 14A152CC
Copy CRC 14A152CC
Copy OK
Track 3
Filename C:\03 - A Understanding.wav
Peak level 96.2 %
Track quality 100.0 %
Test CRC 747F53F3
Copy CRC 747F53F3
Copy OK
Track 4
Filename C:\04 - A Walk with Thee.wav
Peak level 96.6 %
Track quality 100.0 %
Test CRC EAB05D9F
Copy CRC EAB05D9F
Copy OK
Track 5
Filename C:\05 - The Coming of Gwilu.wav
Peak level 96.6 %
Track quality 100.0 %
Test CRC 436C2C70
Copy CRC 436C2C70
Copy OK
No errors occured
End of status report
 
.cue
REM GENRE Jazz
REM DATE 1968
REM DISCID 3A099305
REM COMMENT "ExactAudioCopy v0.95b3"
PERFORMER "Eddie Gale"
TITLE "Eddie Gale's Ghetto Music"
FILE "01 - The Rain.wav" WAVE
TRACK 01 AUDIO
TITLE "The Rain"
PERFORMER "Eddie Gale"
INDEX 01 00:00:00
FILE "02 - Fulton Street.wav" WAVE
TRACK 02 AUDIO
TITLE "Fulton Street"
PERFORMER "Eddie Gale"
INDEX 01 00:00:00
FILE "03 - A Understanding.wav" WAVE
TRACK 03 AUDIO
TITLE "A Understanding"
PERFORMER "Eddie Gale"
INDEX 01 00:00:00
FILE "04 - A Walk with Thee.wav" WAVE
TRACK 04 AUDIO
TITLE "A Walk with Thee"
PERFORMER "Eddie Gale"
INDEX 01 00:00:00
FILE "05 - The Coming of Gwilu.wav" WAVE
TRACK 05 AUDIO
TITLE "The Coming of Gwilu"
PERFORMER "Eddie Gale"
INDEX 01 00:00:00
 
.accurip
[CUETools log; Date: 27/01/14 21:15:07; Version: 2.1.4]
[CTDB TOCID: HLRhBnGT2hm5cWq3MoctQ5ofin4-] found.
Track | CTDB Status
1 | (1/1) Accurately ripped
2 | (1/1) Accurately ripped
3 | (1/1) Accurately ripped
4 | (1/1) Accurately ripped
5 | (1/1) Accurately ripped
[AccurateRip ID: 00077cb9-00239e31-3a099305] found.
Track [ CRC | V2 ] Status
01 [c3d9aaef|0a16a1fe] (3+0/3) Accurately ripped
02 [99543788|f4de2065] (3+0/3) Accurately ripped
03 [b22e3577|a1f2691e] (3+0/3) Accurately ripped
04 [cb3b35ac|3c867164] (3+0/3) Accurately ripped
05 [a4847777|0da78b60] (3+0/3) Accurately ripped
Track Peak [ CRC32 ] [W/O NULL] [ LOG ]
-- 96.6 [8C5F90C5] [5BE3CD62]
01 96.6 [8D70FE07] [EDB61EC1] CRC32
02 96.6 [14A152CC] [9952A679] CRC32
03 96.2 [747F53F3] [3440FD5F] CRC32
04 96.6 [EAB05D9F] [20AD6861] CRC32
05 96.6 [436C2C70] [3BC59AD4] CRC32

другие релизы
Any questions -> support@pro-jazz.com. По всем вопросам пишите -> support@pro-jazz.com
22:59
156
Нет комментариев. Ваш будет первым!