Вы используете незарегистрированную версию компонента "Вкладки"!

Поиск

(free jazz) [cd] John Tchicai - Timo's Message 1984, FLAC (tracks+.cue), lossless

Треклист:
(free jazz) [cd] John Tchicai - Timo's Message 1984, FLAC (tracks+.cue), lossless


John Tchicai - Timo's Message 1984

Жанр: free jazz
Год выпуска: 1984
Издатель (лейбл):Black Saint
Формат: FLAC (tracks+.cue)
Битрейт аудио: lossless
Продолжительность 42`22
Источник: what.cd

tracks

1 Frisk Baglaens 6:34
2 Mushi Miyake 7:12
3 Homage A Tanguy 3:08
4 Exercise 3:54
5 Mothers 5:46
6 Stella By Starlight 3:30
7 Flying Belabirds 5:46
8 The Struggle With The 7th 3:39
9 Homage À Kay 2:52


 
.log
Exact Audio Copy V0.99 prebeta 4 from 23. January 2008
EAC extraction logfile from 25. December 2008, 13:07
John Tchicai / Timo's Message
Used drive : HL-DT-STDVDRAM GSA-4163B Adapter: 1 ID: 1
Read mode : Secure
Utilize accurate stream : Yes
Defeat audio cache : No
Make use of C2 pointers : Yes
Combined read/write offset correction : 0
Overread into Lead-In and Lead-Out : No
Fill up missing offset samples with silence : Yes
Delete leading and trailing silent blocks : No
Null samples used in CRC calculations : No
Used interface : Native Win32 interface for Win NT & 2000
Gap handling : Not detected, thus appended to previous track
Used output format : Internal WAV Routines
Sample format : 44.100 Hz; 16 Bit; Stereo
TOC of the extracted CD
Track | Start | Length | Start sector | End sector
---------------------------------------------------------
1 | 0:00.33 | 6:34.00 | 33 | 29582
2 | 6:34.33 | 7:12.00 | 29583 | 61982
3 | 13:46.33 | 3:08.00 | 61983 | 76082
4 | 16:54.33 | 3:54.00 | 76083 | 93632
5 | 20:48.33 | 5:46.00 | 93633 | 119582
6 | 26:34.33 | 3:30.00 | 119583 | 135332
7 | 30:04.33 | 5:46.00 | 135333 | 161282
8 | 35:50.33 | 3:39.00 | 161283 | 177707
9 | 39:29.33 | 2:53.00 | 177708 | 190682
Track 1
Filename C:\Documents and Settings\Thomas Fuller\My Documents\My Music\Jazz\Timo's Message\01_Frisk Baglaens.wav
Peak level 81.2 %
Track quality 100.0 %
Copy CRC 616D7531
Copy OK
Track 2
Filename C:\Documents and Settings\Thomas Fuller\My Documents\My Music\Jazz\Timo's Message\02_Mushi Miyake.wav
Peak level 84.3 %
Track quality 100.0 %
Copy CRC F8E89FB5
Copy OK
Track 3
Filename C:\Documents and Settings\Thomas Fuller\My Documents\My Music\Jazz\Timo's Message\03_Homage a Tanguy.wav
Peak level 87.4 %
Track quality 100.0 %
Copy CRC 3C1B2299
Copy OK
Track 4
Filename C:\Documents and Settings\Thomas Fuller\My Documents\My Music\Jazz\Timo's Message\04_Exercise 15.wav
Peak level 66.1 %
Track quality 100.0 %
Copy CRC 187FC36A
Copy OK
Track 5
Filename C:\Documents and Settings\Thomas Fuller\My Documents\My Music\Jazz\Timo's Message\05_Mothers.wav
Peak level 82.3 %
Track quality 100.0 %
Copy CRC 96FB6981
Copy OK
Track 6
Filename C:\Documents and Settings\Thomas Fuller\My Documents\My Music\Jazz\Timo's Message\06_Stella By Starlight.wav
Peak level 74.1 %
Track quality 100.0 %
Copy CRC CDC1E608
Copy OK
Track 7
Filename C:\Documents and Settings\Thomas Fuller\My Documents\My Music\Jazz\Timo's Message\07_Flying Belabirds.wav
Peak level 88.0 %
Track quality 100.0 %
Copy CRC 96A72F03
Copy OK
Track 8
Filename C:\Documents and Settings\Thomas Fuller\My Documents\My Music\Jazz\Timo's Message\08_The Struggle with the 7th.wav
Peak level 69.3 %
Track quality 99.9 %
Copy CRC B3EB85EF
Copy OK
Track 9
Filename C:\Documents and Settings\Thomas Fuller\My Documents\My Music\Jazz\Timo's Message\09_Homage a Kay.wav
Peak level 77.3 %
Track quality 100.0 %
Copy CRC 7CA7BC4A
Copy OK
No errors occurred
End of status report
 
.cue
REM DISCID 7109EE09
REM COMMENT "ExactAudioCopy v0.99pb4"
PERFORMER "John Tchicai"
TITLE "Timo's Message"
FILE "01_Frisk Baglaens.wav" WAVE
TRACK 01 AUDIO
TITLE "01_Frisk Baglaens"
PERFORMER "John Tchicai"
PREGAP 00:00:33
INDEX 01 00:00:00
TRACK 02 AUDIO
TITLE "02_Mushi Miyake"
PERFORMER "John Tchicai"
INDEX 00 06:30:00
FILE "02_Mushi Miyake.wav" WAVE
INDEX 01 00:00:00
TRACK 03 AUDIO
TITLE "03_Homage a Tanguy"
PERFORMER "John Tchicai"
INDEX 00 07:08:00
FILE "03_Homage a Tanguy.wav" WAVE
INDEX 01 00:00:00
TRACK 04 AUDIO
TITLE "04_Exercise 15"
PERFORMER "John Tchicai"
INDEX 00 03:04:00
FILE "04_Exercise 15.wav" WAVE
INDEX 01 00:00:00
TRACK 05 AUDIO
TITLE "05_Mothers"
PERFORMER "John Tchicai"
INDEX 00 03:51:00
FILE "05_Mothers.wav" WAVE
INDEX 01 00:00:00
TRACK 06 AUDIO
TITLE "06_Stella By Starlight"
PERFORMER "John Tchicai"
INDEX 00 05:42:00
FILE "06_Stella By Starlight.wav" WAVE
INDEX 01 00:00:00
TRACK 07 AUDIO
TITLE "07_Flying Belabirds"
PERFORMER "John Tchicai"
INDEX 00 03:27:00
FILE "07_Flying Belabirds.wav" WAVE
INDEX 01 00:00:00
TRACK 08 AUDIO
TITLE "08_The Struggle with the 7th"
PERFORMER "John Tchicai"
INDEX 00 05:43:00
FILE "08_The Struggle with the 7th.wav" WAVE
INDEX 01 00:00:00
TRACK 09 AUDIO
TITLE "09_Homage a Kay"
PERFORMER "John Tchicai"
INDEX 00 03:36:00
FILE "09_Homage a Kay.wav" WAVE
INDEX 01 00:00:00
 
.accurip
[CUETools log; Date: 14/10/15 17:56:49; Version: 2.1.4]
Pregap length 00:00:33.
Offset applied: -11
[CTDB TOCID: h5IxPbT3Jabje6rCgDQUx4IXTOk-] disk not present in database.
[AccurateRip ID: 000ff591-00721e9c-7109ee09] found.
Track [ CRC | V2 ] Status
01 [052b4f33|6c865e4d] (0+0/2) No match
02 [82d67968|62d36f59] (0+0/2) No match
03 [542b6355|2614a624] (0+0/2) No match
04 [5b9274d7|7e19b67d] (0+0/2) No match
05 [7b8ff7a2|2b002267] (0+0/2) No match
06 [9cbc05d9|a6c650d4] (0+0/2) No match
07 [f2ba7f26|d8516257] (0+0/2) No match
08 [6d5f55e9|1584cce2] (0+0/2) No match
09 [e20c6c76|eeafc528] (0+0/2) No match
Offsetted by 678:
01 [6b7b1620] (1/2) Accurately ripped
02 [5e3148ba] (1/2) Accurately ripped
03 [7f4912d2] (1/2) Accurately ripped
04 [3041f4d1] (1/2) Accurately ripped
05 [402deea1] (1/2) Accurately ripped
06 [b0f1607c] (1/2) Accurately ripped
07 [25255e37] (1/2) Accurately ripped
08 [2529537f] (1/2) Accurately ripped
09 [6a2642c9] (1/2) Accurately ripped
Track Peak [ CRC32 ] [W/O NULL] [ LOG ]
-- 88.0 [A6F6E013] [EF5EA0AD]
01 81.2 [C7536718] [0B5559A2] W/O NULL : offset 11
02 84.3 [092C21B2] [AC189781] W/O NULL : offset 11
03 87.4 [932D6058] [199D888F] W/O NULL : offset 11
04 66.1 [7A29070D] [151A9605] W/O NULL : offset 11
05 82.3 [AE35A5FC] [8A63B6DE] W/O NULL : offset 11
06 74.1 [B469140E] [3D293217] W/O NULL : offset 11
07 88.0 [97570E34] [4FCD61C8] W/O NULL : offset 11
08 69.3 [D23B4C89] [E0F29046] W/O NULL : offset 11
09 77.3 [27BFDAE9] [9BFF7BAF] [7CA7BC4A]

http://www.discogs.com/John-Tchicai-Group-Timos-Message/release/2987085
другие релизы
По всем вопросам пишите личное сообщение пользователю M0p94ok.
16:15
171
Нет комментариев. Ваш будет первым!