Вы используете незарегистрированную версию компонента "Вкладки"!

Поиск

(free jazz) [cd] Evan Parker & konstruKt - Live at Akbank Jazz Festival (2011), FLAC (tracks+.cue), lossless

(free jazz) [cd] Evan Parker & konstruKt - Live at Akbank Jazz Festival (2011), FLAC (tracks+.cue), lossless
Треклист:
(free jazz) [cd] Evan Parker & konstruKt - Live at Akbank Jazz Festival (2011), FLAC (tracks+.cue), lossless


Evan Parker & konstruKt
Live at Akbank Jazz Festival (2011)
Жанр: free jazz
Год выпуска: 2011
Издатель (лейбл):Re:konstruKt / re:052
Формат: FLAC (tracks+.cue)
Битрейт аудио: lossless
Продолжительность 1`07`33
Источник: what.cd

tracks

1 Solo Improvisation 1 14:18
2 Solo Improvisation 2 9:04
3 Collective Improvisation 1 21:47
4 Collective Improvisation 2 20:43


 
.log
Exact Audio Copy V1.0 beta 3 from 29. August 2011
EAC extraction logfile from 20. May 2015, 3:21
Evan Parker & konstruKt / Live at Akbank Jazz Festival
Used drive : HL-DT-STDVDRAM GSA-T20N Adapter: 0 ID: 0
Read mode : Secure
Utilize accurate stream : Yes
Defeat audio cache : Yes
Make use of C2 pointers : No
Read offset correction : 667
Overread into Lead-In and Lead-Out : No
Fill up missing offset samples with silence : Yes
Delete leading and trailing silent blocks : No
Null samples used in CRC calculations : Yes
Used interface : Native Win32 interface for Win NT & 2000
Gap handling : Appended to previous track
Used output format : User Defined Encoder
Selected bitrate : 1024 kBit/s
Quality : High
Add ID3 tag : No
Command line compressor : C:\Program Files (x86)\Exact Audio Copy\Flac\flac.exe
Additional command line options : -8 -V -T "ARTIST=%artist%" -T "TITLE=%title%" -T "ALBUM=%albumtitle%" -T "DATE=%year%" -T "TRACKNUMBER=%tracknr%" -T "GENRE=%genre%" -T "PERFORMER=%albuminterpret%" -T "COMPOSER=%composer%" %haslyrics%--tag-from-file=LYRICS="%lyricsfile%"%haslyrics% -T "ALBUMARTIST=%albumartist%" -T "DISCNUMBER=%cdnumber%" -T "TOTALDISCS=%totalcds%" -T "TOTALTRACKS=%numtracks%" -T "COMMENT=%comment%" %source% -o %dest%
TOC of the extracted CD
Track | Start | Length | Start sector | End sector
---------------------------------------------------------
1 | 0:00.00 | 14:07.30 | 0 | 63554
2 | 14:07.30 | 8:49.53 | 63555 | 103282
3 | 22:57.08 | 21:50.06 | 103283 | 201538
4 | 44:47.14 | 22:46.05 | 201539 | 303993
Track 1
Filename D:\WhatCD\Evan Parker & konstruKt - Live at Akbank Jazz Festival (2011) [FLAC]\01 -Evan Parker - Solo Improvisation 1.wav
Pre-gap length 0:00:02.00
Peak level 98.8 %
Extraction speed 2.9 X
Track quality 100.0 %
Test CRC C33FF339
Copy CRC C33FF339
Track not present in AccurateRip database
Copy OK
Track 2
Filename D:\WhatCD\Evan Parker & konstruKt - Live at Akbank Jazz Festival (2011) [FLAC]\02 -Evan Parker - Solo Improvisation 2.wav
Peak level 98.8 %
Extraction speed 3.5 X
Track quality 100.0 %
Test CRC 7921388F
Copy CRC 7921388F
Track not present in AccurateRip database
Copy OK
Track 3
Filename D:\WhatCD\Evan Parker & konstruKt - Live at Akbank Jazz Festival (2011) [FLAC]\03 -Evan Parker & konstruKt - Collective Improvisation 1.wav
Peak level 98.8 %
Extraction speed 4.1 X
Track quality 99.9 %
Test CRC 068519D8
Copy CRC 068519D8
Track not present in AccurateRip database
Copy OK
Track 4
Filename D:\WhatCD\Evan Parker & konstruKt - Live at Akbank Jazz Festival (2011) [FLAC]\04 -Evan Parker & konstruKt - Collective Improvisation 2.wav
Peak level 98.8 %
Extraction speed 5.1 X
Track quality 100.0 %
Test CRC 9902A1E1
Copy CRC 9902A1E1
Track not present in AccurateRip database
Copy OK
None of the tracks are present in the AccurateRip database
No errors occurred
End of status report
---- CUETools DB Plugin V2.1.4
[CTDB TOCID: l6_JYf2vIp0hRcLW5KqgSxN6aIk-] disk not present in database
Submit result: l6_JYf2vIp0hRcLW5KqgSxN6aIk- has been uploaded
==== Log checksum 66D5FA6776DC0B20262EAA71A3DD326EB354FCEFD33FD2897C77B0F31C9F8470 ====
 
.cue
REM GENRE Jazz
REM DATE 2011
REM DISCID 440FD504
REM COMMENT "ExactAudioCopy v1.0b3"
PERFORMER "Evan Parker & konstruKt"
TITLE "Live at Akbank Jazz Festival"
FILE "01 -Evan Parker - Solo Improvisation 1.wav" WAVE
TRACK 01 AUDIO
TITLE "Solo Improvisation 1"
PERFORMER "Evan Parker"
ISRC TR1021000177
INDEX 01 00:00:00
FILE "02 -Evan Parker - Solo Improvisation 2.wav" WAVE
TRACK 02 AUDIO
TITLE "Solo Improvisation 2"
PERFORMER "Evan Parker"
ISRC TR1021000178
INDEX 01 00:00:00
FILE "03 -Evan Parker & konstruKt - Collective Improvisation 1.wav" WAVE
TRACK 03 AUDIO
TITLE "Collective Improvisation 1"
PERFORMER "Evan Parker & konstruKt"
ISRC TR1021000179
INDEX 01 00:00:00
FILE "04 -Evan Parker & konstruKt - Collective Improvisation 2.wav" WAVE
TRACK 04 AUDIO
TITLE "Collective Improvisation 2"
PERFORMER "Evan Parker & konstruKt"
ISRC TR1021000180
INDEX 01 00:00:00

http://www.discogs.com/Evan-Parker-Konstrukt-Live-At-Akbank-Jazz-Festival/release/3202157
другие релизы
По всем вопросам пишите личное сообщение пользователю M0p94ok.
16:15
193
Нет комментариев. Ваш будет первым!