Поиск

(Avant-Garde Jazz / Free Improvisation) [CD] Whit Dickey Quartet (Roy Campbell, Jr., Rob Brown, Joe Morris) - Coalescence - 2004 [Clean Feed CF021CD], FLAC (tracks+.cue), lossless

(Avant-Garde Jazz / Free Improvisation) [CD] Whit Dickey Quartet (Roy Campbell, Jr., Rob Brown, Joe Morris) - Coalescence - 2004 [Clean Feed CF021CD], FLAC (tracks+.cue), lossless
Треклист:
Whit Dickey Quartet - Coalescence
Жанр: Avant-Garde Jazz / Free Improvisation
Носитель: CD
Страна-производитель диска (релиза): Portugal
Год издания: 2004
Издатель (лейбл): Clean Feed
Номер по каталогу: CF021CD
Аудиокодек: FLAC (*.flac)
Тип рипа: tracks+.cue
Битрейт аудио: lossless
Продолжительность: 00:44:59
Источник (релизер): what.cd / спасибо 6060842
Наличие сканов в содержимом раздачи: нет
Треклист:
1. Mojo Rising (12:08)
2. Coalescence 1 (11:22)
3. Steam (08:24)
4. Coalescence 2 (13:10)
All compositions by Whit Dickey
Доп. информация:
Musicians:
Roy Campbell, Jr. - trumpet
Rob Brown - alto saxophone, flute
Joe Morris - double bass
Whit Dickey - drums
Recorded February 8, 2003 at Strobe Sound Studio in Brooklyn
Mixed and mastered at Mindswerve Studio, April 2003
Whit Dickey Quartet - Coalescence cleanfeed-records.com
Whit Dickey from Wikipedia, the free encyclopedia
Roy Campbell, Jr. from Wikipedia, the free encyclopedia
Rob Brown from Wikipedia, the free encyclopedia
Joe Morris from Wikipedia, the free encyclopedia
 
... back ...
 
... photo ...
 
... info ...
Whit Dickey is a musician that has built his career through coherent and judicious choices. Not only regarding his participations in other musicians projects but also in the way he leads his own projects. Dickey was part of the quartet of the extraordinary saxophonist David S. Ware during 5 years and also of the Matthew Shipp Trio, with whom he still usually plays. However, after 1998 he felt he had to devote more time to the exploration of his own ideas and musical conceptions. After Transonic (Aum Fidelity) and Big Top (Wobbly Rail), both enthusiastically received by the international jazz media, “Coalescence” opens a new chapter in the musical activities of the drummer, acting as a presentation for his new quartet. This new formation reveals itself as the perfect vehicle for the expression of his concept, being Dickey who leads the musical combustion with his creative and possessive drumming. Dickey follows the footsteps of the great jazz drummers that made history leading their own groups, as did charismatic big band drummers Gene Krupa and Buddy Rich, or the innovators Max Roach and Art Blakey. For this session, Dickey gathered three of the most interesting musicians on the scene, on what can be considered the most versatile of his formations, built around a traditional line up; saxophone, trumpet, double bass and drums. In this formation, of bop innuendos with a modernist camouflage, two musicians stand out; trumpet player Roy Campbell, whose delicate expressiveness matches an unusual tension and sound amplitude, and saxophonist Rob Brown who, once more, delivers his dynamic phrasing, building fresh and consistent solos, which contrast only his little popularity. Guitar player Joe Morris is the session bass player. After building a remarkable reputation as a guitar player, Morris decided also to dedicate himself to the double bass. Dedicate is the right word and what we hear on this recording is the work of a true bass player. This duality between both worlds allows him a highly original and innovative approach on the new instrument, based on a strong and powerful rhythmic accent. Whit Dickey is the catalyst who unites all the elements, exploring moods and impulses that form the themes and mirror subtle Monk and Ornette influences. “Coalescence” reaffirms once more the extraordinary vitality and dynamic of the jazz being made today.
~ cleanfeed-records.com
 
Лог создания рипа
X Lossless Decoder version 20130407 (143.0)
XLD extraction logfile from 2013-04-28 12:33:25 +0400
Whit Dickey Quartet / Coalescence
Used drive : HL-DT-ST DVDRW GX30N (revision RP09)
Media type : Pressed CD
Ripper mode : XLD Secure Ripper
Disable audio cache : OK for the drive with a cache less than 1375KiB
Make use of C2 pointers : NO
Read offset correction : 6
Max retry count : 20
Gap status : Analyzed, Appended
TOC of the extracted CD
Track | Start | Length | Start sector | End sector
---------------------------------------------------------
1 | 00:00:00 | 12:08:10 | 0 | 54609
2 | 12:08:10 | 11:22:16 | 54610 | 105775
3 | 23:30:26 | 08:23:58 | 105776 | 143558
4 | 31:54:09 | 13:10:33 | 143559 | 202841
AccurateRip Summary (DiscID: 0007bba3-001ebf13-250a9004)
Track 01 : NG (total 1 submission)
Track 02 : NG (total 1 submission)
Track 03 : OK (v1, confidence 1/1)
Track 04 : OK (v1, confidence 1/1)
->2 tracks accurately ripped, 2 tracks not
All Tracks
Album gain : -5.78 dB
Peak : 0.988586
Statistics
Read error : 0
Jitter error (maybe fixed) : 0
Retry sector count : 0
Damaged sector count : 0
Track 01
Filename : /Users/anch/Music/FLAC/Whit Dickey Quartet - 2004 - Coalescence [FLAC]/01 - Mojo Rising.flac
/Users/anch/Music/FLAC/Whit Dickey Quartet - 2004 - Coalescence [MP3 320]/01 - Mojo Rising.mp3
/Users/anch/Music/FLAC/Whit Dickey Quartet - 2004 - Coalescence [MP3 V0]/01 - Mojo Rising.mp3
Pre-gap length : 00:02:00
Track gain : -6.65 dB
Peak : 0.988586
CRC32 hash (test run) : 95B4BB3E
CRC32 hash : 95B4BB3E
CRC32 hash (skip zero) : DDEFFB12
AccurateRip v1 signature : D7C256C6
AccurateRip v2 signature : 4E249E56
->Rip may not be accurate (total 1 submission).
Statistics
Read error : 0
Jitter error (maybe fixed) : 0
Retry sector count : 0
Damaged sector count : 0
Track 02
Filename : /Users/anch/Music/FLAC/Whit Dickey Quartet - 2004 - Coalescence [FLAC]/02 - Coalescence 1.flac
/Users/anch/Music/FLAC/Whit Dickey Quartet - 2004 - Coalescence [MP3 320]/02 - Coalescence 1.mp3
/Users/anch/Music/FLAC/Whit Dickey Quartet - 2004 - Coalescence [MP3 V0]/02 - Coalescence 1.mp3
Pre-gap length : 00:02:00
Track gain : -5.37 dB
Peak : 0.988586
CRC32 hash (test run) : 7166D8DE
CRC32 hash : 7166D8DE
CRC32 hash (skip zero) : AF2A6DA0
AccurateRip v1 signature : 4297EEDE
AccurateRip v2 signature : B719AD8F
->Rip may not be accurate (total 1 submission).
Statistics
Read error : 0
Jitter error (maybe fixed) : 0
Retry sector count : 0
Damaged sector count : 0
Track 03
Filename : /Users/anch/Music/FLAC/Whit Dickey Quartet - 2004 - Coalescence [FLAC]/03 - Steam.flac
/Users/anch/Music/FLAC/Whit Dickey Quartet - 2004 - Coalescence [MP3 320]/03 - Steam.mp3
/Users/anch/Music/FLAC/Whit Dickey Quartet - 2004 - Coalescence [MP3 V0]/03 - Steam.mp3
Pre-gap length : 00:02:00
Track gain : -4.74 dB
Peak : 0.988586
CRC32 hash (test run) : 75801EBF
CRC32 hash : 75801EBF
CRC32 hash (skip zero) : 08C703D1
AccurateRip v1 signature : 7788B47F
AccurateRip v2 signature : 537D26BF
->Accurately ripped (v1, confidence 1/1)
Statistics
Read error : 0
Jitter error (maybe fixed) : 0
Retry sector count : 0
Damaged sector count : 0
Track 04
Filename : /Users/anch/Music/FLAC/Whit Dickey Quartet - 2004 - Coalescence [FLAC]/04 - Coalescence 2.flac
/Users/anch/Music/FLAC/Whit Dickey Quartet - 2004 - Coalescence [MP3 320]/04 - Coalescence 2.mp3
/Users/anch/Music/FLAC/Whit Dickey Quartet - 2004 - Coalescence [MP3 V0]/04 - Coalescence 2.mp3
Pre-gap length : 00:01:00
Track gain : -5.25 dB
Peak : 0.988586
CRC32 hash (test run) : 1D7BD774
CRC32 hash : 1D7BD774
CRC32 hash (skip zero) : CA2B8E8C
AccurateRip v1 signature : 5D92D075
AccurateRip v2 signature : B158713B
->Accurately ripped (v1, confidence 1/1)
Statistics
Read error : 0
Jitter error (maybe fixed) : 0
Retry sector count : 0
Damaged sector count : 0
No errors occurred
End of status report
 
Содержание индексной карты (.CUE)
TITLE "Coalescence"
PERFORMER "Whit Dickey Quartet"
REM GENRE "Free Jazz"
REM DATE "2004"
REM DISCID 250A9004
REM REPLAYGAIN_ALBUM_GAIN -5.78 dB
REM REPLAYGAIN_ALBUM_PEAK 0.988586
FILE "01 - Mojo Rising.flac" WAVE
TRACK 01 AUDIO
TITLE "Mojo Rising"
PERFORMER "Whit Dickey Quartet"
FLAGS DCP
REM REPLAYGAIN_TRACK_GAIN -6.65 dB
REM REPLAYGAIN_TRACK_PEAK 0.988586
INDEX 01 00:00:00
TRACK 02 AUDIO
TITLE "Coalescence 1"
PERFORMER "Whit Dickey Quartet"
FLAGS DCP
REM REPLAYGAIN_TRACK_GAIN -5.37 dB
REM REPLAYGAIN_TRACK_PEAK 0.988586
INDEX 00 12:06:10
FILE "02 - Coalescence 1.flac" WAVE
INDEX 01 00:00:00
TRACK 03 AUDIO
TITLE "Steam"
PERFORMER "Whit Dickey Quartet"
FLAGS DCP
REM REPLAYGAIN_TRACK_GAIN -4.74 dB
REM REPLAYGAIN_TRACK_PEAK 0.988586
INDEX 00 11:20:16
FILE "03 - Steam.flac" WAVE
INDEX 01 00:00:00
TRACK 04 AUDIO
TITLE "Coalescence 2"
PERFORMER "Whit Dickey Quartet"
FLAGS DCP
REM REPLAYGAIN_TRACK_GAIN -5.25 dB
REM REPLAYGAIN_TRACK_PEAK 0.988586
INDEX 00 08:22:58
FILE "04 - Coalescence 2.flac" WAVE
INDEX 01 00:00:00
По всем вопросам пишите личное сообщение пользователю M0p94ok.
16:14
176
Нет комментариев. Ваш будет первым!