Поиск

(Avant-Garde Jazz / Free Improvisation) [CD] Stephen Gauci's Basso Continuo (Nate Wooley, Mike Bisio, Ingebrigt Haaker Flaten) - Nididhyasana - 2007 [Clean Feed CF101CD], FLAC (tracks+.cue), lossless

(Avant-Garde Jazz / Free Improvisation) [CD] Stephen Gauci's Basso Continuo (Nate Wooley, Mike Bisio, Ingebrigt Haaker Flaten) - Nididhyasana - 2007 [Clean Feed CF101CD], FLAC (tracks+.cue), lossless
Треклист:
Stephen Gauci's Basso Continuo - Nididhyasana
Жанр: Avant-Garde Jazz / Free Improvisation
Носитель: CD
Страна-производитель диска (релиза): Portugal
Год издания: 2007
Издатель (лейбл): Clean Feed
Номер по каталогу: CF101CD
Аудиокодек: FLAC (*.flac)
Тип рипа: tracks+.cue
Битрейт аудио: lossless
Продолжительность: 00:57:54
Источник (релизер): what.cd / спасибо 6060842
Наличие сканов в содержимом раздачи: да
Треклист:
1. Nididhyasana (Uninterrupted Contemplation) (23:17)
2. Dhriti (Steadfastness) (10:06)
3. Chitta Vilasa (Play Of Mind) (19:34)
4. Turyaga (Beyond Words) (05:01)
Доп. информация:
Musicians:
Stephen Gauci - tenor saxophone
Nate Wooley - trumpet
Mike Bisio - double bass
Ingebrigt Haaker Flaten - double bass
Recorded January 14, 2007 live at the Downtown Music Gallery, NYC
Stephen Gauci's Basso Continuo - Nididhyasana cleanfeed-records.com
Stephen Gauci's Basso Continuo - Nididhyasana freejazzblog.org
Stephen Gauci Official Site
Nate Wooley Official Site
 
... photo ...
 
Лог создания рипа
X Lossless Decoder version 20130407 (143.0)
XLD extraction logfile from 2013-04-29 11:24:33 +0400
Stephen Gauci's Basso Continuo / Nididhyasana
Used drive : HL-DT-ST DVDRW GX30N (revision RP09)
Media type : Pressed CD
Ripper mode : XLD Secure Ripper
Disable audio cache : OK for the drive with a cache less than 1375KiB
Make use of C2 pointers : NO
Read offset correction : 6
Max retry count : 20
Gap status : Analyzed, Appended
TOC of the extracted CD
Track | Start | Length | Start sector | End sector
---------------------------------------------------------
1 | 00:00:00 | 23:17:16 | 0 | 104790
2 | 23:17:16 | 10:06:67 | 104791 | 150307
3 | 33:24:08 | 19:34:57 | 150308 | 238414
4 | 52:58:65 | 05:01:38 | 238415 | 261027
AccurateRip Summary (DiscID: 000b836e-002c8b8b-2c0d9804)
Track 01 : OK (v1, confidence 1/1)
Track 02 : OK (v1, confidence 1/1)
Track 03 : OK (v1, confidence 1/1)
Track 04 : OK (v1, confidence 1/1)
->All tracks accurately ripped.
All Tracks
Album gain : -4.77 dB
Peak : 0.988556
Statistics
Read error : 0
Jitter error (maybe fixed) : 0
Retry sector count : 0
Damaged sector count : 0
Track 01
Filename : /Users/anch/Music/FLAC/Stephen Gauci's Basso Continuo - 2007 - Nididhyasana [FLAC]/01 - Nididhyasana (Uninterrupted Contemplation).flac
/Users/anch/Music/FLAC/Stephen Gauci's Basso Continuo - 2007 - Nididhyasana [MP3 320]/01 - Nididhyasana (Uninterrupted Contemplation).mp3
/Users/anch/Music/FLAC/Stephen Gauci's Basso Continuo - 2007 - Nididhyasana [MP3 V0]/01 - Nididhyasana (Uninterrupted Contemplation).mp3
Pre-gap length : 00:02:00
Track gain : -2.93 dB
Peak : 0.988556
CRC32 hash (test run) : 9B44221A
CRC32 hash : 9B44221A
CRC32 hash (skip zero) : F2B26F41
AccurateRip v1 signature : 4C8651E3
AccurateRip v2 signature : B3BD640D
->Accurately ripped (v1, confidence 1/1)
Statistics
Read error : 0
Jitter error (maybe fixed) : 0
Retry sector count : 0
Damaged sector count : 0
Track 02
Filename : /Users/anch/Music/FLAC/Stephen Gauci's Basso Continuo - 2007 - Nididhyasana [FLAC]/02 - Dhriti (Steadfastness).flac
/Users/anch/Music/FLAC/Stephen Gauci's Basso Continuo - 2007 - Nididhyasana [MP3 320]/02 - Dhriti (Steadfastness).mp3
/Users/anch/Music/FLAC/Stephen Gauci's Basso Continuo - 2007 - Nididhyasana [MP3 V0]/02 - Dhriti (Steadfastness).mp3
Pre-gap length : 00:02:00
Track gain : -5.56 dB
Peak : 0.988556
CRC32 hash (test run) : FA1D0E82
CRC32 hash : FA1D0E82
CRC32 hash (skip zero) : 908CF47D
AccurateRip v1 signature : 93038CC6
AccurateRip v2 signature : 50B31285
->Accurately ripped (v1, confidence 1/1)
Statistics
Read error : 0
Jitter error (maybe fixed) : 0
Retry sector count : 0
Damaged sector count : 0
Track 03
Filename : /Users/anch/Music/FLAC/Stephen Gauci's Basso Continuo - 2007 - Nididhyasana [FLAC]/03 - Chitta Vilasa (Play of Mind).flac
/Users/anch/Music/FLAC/Stephen Gauci's Basso Continuo - 2007 - Nididhyasana [MP3 320]/03 - Chitta Vilasa (Play of Mind).mp3
/Users/anch/Music/FLAC/Stephen Gauci's Basso Continuo - 2007 - Nididhyasana [MP3 V0]/03 - Chitta Vilasa (Play of Mind).mp3
Pre-gap length : 00:02:00
Track gain : -4.99 dB
Peak : 0.988556
CRC32 hash (test run) : B653797B
CRC32 hash : B653797B
CRC32 hash (skip zero) : 88AD8ED8
AccurateRip v1 signature : 9F82E080
AccurateRip v2 signature : 2C8D7E2D
->Accurately ripped (v1, confidence 1/1)
Statistics
Read error : 0
Jitter error (maybe fixed) : 0
Retry sector count : 0
Damaged sector count : 0
Track 04
Filename : /Users/anch/Music/FLAC/Stephen Gauci's Basso Continuo - 2007 - Nididhyasana [FLAC]/04 - Turyaga (Beyond Words).flac
/Users/anch/Music/FLAC/Stephen Gauci's Basso Continuo - 2007 - Nididhyasana [MP3 320]/04 - Turyaga (Beyond Words).mp3
/Users/anch/Music/FLAC/Stephen Gauci's Basso Continuo - 2007 - Nididhyasana [MP3 V0]/04 - Turyaga (Beyond Words).mp3
Pre-gap length : 00:02:00
Track gain : -5.86 dB
Peak : 0.988556
CRC32 hash (test run) : A37A2350
CRC32 hash : A37A2350
CRC32 hash (skip zero) : 02915182
AccurateRip v1 signature : 7BC5CF31
AccurateRip v2 signature : CCD264E9
->Accurately ripped (v1, confidence 1/1)
Statistics
Read error : 0
Jitter error (maybe fixed) : 0
Retry sector count : 0
Damaged sector count : 0
No errors occurred
End of status report
 
Содержание индексной карты (.CUE)
TITLE "Nididhyasana"
PERFORMER "Stephen Gauci's Basso Continuo"
REM GENRE "Free Jazz"
REM DATE "2007"
REM DISCID 2C0D9804
REM REPLAYGAIN_ALBUM_GAIN -4.77 dB
REM REPLAYGAIN_ALBUM_PEAK 0.988556
FILE "01 - Nididhyasana (Uninterrupted Contemplation).flac" WAVE
TRACK 01 AUDIO
TITLE "Nididhyasana (Uninterrupted Contemplation)"
PERFORMER "Stephen Gauci's Basso Continuo"
REM REPLAYGAIN_TRACK_GAIN -2.93 dB
REM REPLAYGAIN_TRACK_PEAK 0.988556
INDEX 01 00:00:00
TRACK 02 AUDIO
TITLE "Dhriti (Steadfastness)"
PERFORMER "Stephen Gauci's Basso Continuo"
REM REPLAYGAIN_TRACK_GAIN -5.56 dB
REM REPLAYGAIN_TRACK_PEAK 0.988556
INDEX 00 23:15:16
FILE "02 - Dhriti (Steadfastness).flac" WAVE
INDEX 01 00:00:00
TRACK 03 AUDIO
TITLE "Chitta Vilasa (Play of Mind)"
PERFORMER "Stephen Gauci's Basso Continuo"
REM REPLAYGAIN_TRACK_GAIN -4.99 dB
REM REPLAYGAIN_TRACK_PEAK 0.988556
INDEX 00 10:04:67
FILE "03 - Chitta Vilasa (Play of Mind).flac" WAVE
INDEX 01 00:00:00
TRACK 04 AUDIO
TITLE "Turyaga (Beyond Words)"
PERFORMER "Stephen Gauci's Basso Continuo"
REM REPLAYGAIN_TRACK_GAIN -5.86 dB
REM REPLAYGAIN_TRACK_PEAK 0.988556
INDEX 00 19:32:57
FILE "04 - Turyaga (Beyond Words).flac" WAVE
INDEX 01 00:00:00
15:13
305
Нет комментариев. Ваш будет первым!